<?xml version="1.0" standalone="no"?>
<!DOCTYPE svg PUBLIC "-//W3C//DTD SVG 1.1//EN" "http://www.w3.org/Graphics/SVG/1.1/DTD/svg11.dtd" >
<svg xmlns="http://www.w3.org/2000/svg" xmlns:xlink="http://www.w3.org/1999/xlink" version="1.1">
<metadata>
Created by FontForge 20201107 at Fri Jan  1 02:30:17 1904
 By 
Copyright (c) 1991 Digital Typeface Corp.
</metadata>
<defs>
<font id="GoudyOldStyleITALIC" horiz-adv-x="2048" >
  <font-face 
    font-family="Goudy Old Style"
    font-weight="400"
    font-style="italic"
    font-stretch="normal"
    units-per-em="4096"
    panose-1="2 2 114 0 0 0 0 0 0 0"
    ascent="3276"
    descent="-820"
    x-height="1622"
    cap-height="2744"
    bbox="-594 -770 4035 3498"
    underline-thickness="39"
    underline-position="-125"
    slope="17"
    unicode-range="U+0020-F002"
  />
<missing-glyph horiz-adv-x="3072" 
d="M512 0v2560h2048v-2560h-2048zM2494 66v2428h-1916v-2428h1916z" />
    <glyph glyph-name=".notdef" horiz-adv-x="3072" 
d="M512 0v2560h2048v-2560h-2048zM2494 66v2428h-1916v-2428h1916z" />
    <glyph glyph-name=".null" horiz-adv-x="0" 
 />
    <glyph glyph-name="nonmarkingreturn" horiz-adv-x="0" 
 />
    <glyph glyph-name="space" unicode=" " horiz-adv-x="1036" 
 />
    <glyph glyph-name="exclam" unicode="!" horiz-adv-x="938" 
d="M438 848l78 1610q7 163 156 163q135 0 135 -94q0 -25 -8 -73l-275 -1610q-9 -62 -45 -62h-4q-37 0 -37 66zM655 213q-3 -17 -118.5 -129.5t-135.5 -112.5q-19 0 -105.5 102.5t-86.5 127.5q0 33 45 69q16 10 93 83t95 73q35 0 61 -25t61 -74.5t59 -68.5q32 -16 32 -45z
" />
    <glyph glyph-name="quotedbl" unicode="&#x22;" horiz-adv-x="1315" 
d="M561 1634h-131l57 1098h287zM1147 1634h-131l57 1098h287z" />
    <glyph glyph-name="numbersign" unicode="#" horiz-adv-x="2429" 
d="M1663 938l-287 -938h-147l291 938h-648l-290 -938h-144l291 938h-483l37 135h495l185 639h-480l37 135h492l274 885h144l-271 -885h643l275 885h143l-270 -885h458l-41 -135h-466l-189 -639h463l-41 -135h-471zM1569 1073l184 639h-643l-188 -639h647z" />
    <glyph glyph-name="dollar" unicode="$" horiz-adv-x="2077" 
d="M1032 1384q-264 127 -416.5 277t-152.5 387q0 192 101.5 342.5t269 233.5t358.5 88l20 176q11 94 62 94q69 0 69 -53q0 -25 -3.5 -63.5t-9 -77.5t-11.5 -85q90 -14 220 -67.5t227.5 -128.5t101.5 -152q0 -53 -33 -127t-78 -74q-15 0 -95.5 108.5t-166 194.5t-188.5 115
l-115 -950q201 -92 342.5 -185t233.5 -230.5t92 -329.5q0 -243 -111.5 -426t-307.5 -283.5t-433 -106.5l-54 -426q-9 -98 -61 -98q-70 0 -70 57q0 9 2 27t2 27l50 418q-217 30 -336 98q-92 51 -186 141.5t-97 169.5v4q0 61 41 174t86 113q37 -5 45 -66q65 -229 162.5 -357
t296.5 -163zM1155 1327l-135 -1155q160 6 298 88.5t219 221t81 300.5q0 339 -463 545zM1180 2597q-204 0 -366.5 -117.5t-162.5 -316.5q0 -168 113.5 -277t304.5 -203z" />
    <glyph glyph-name="percent" unicode="%" horiz-adv-x="2679" 
d="M1397 2228q-17 -188 -110 -375.5t-248.5 -314t-342.5 -137.5q-189 0 -299 123.5t-110 314.5t94 390t258 328.5t360 129.5q193 0 295.5 -131t102.5 -328zM1196 2269q0 11 2 29t2 29q0 278 -209 278q-150 0 -266 -136.5t-179 -326.5t-63 -340q0 -125 48.5 -218t156.5 -93
q157 0 266.5 129.5t168.5 312t73 336.5zM2597 2605l-2073 -2539q-76 -95 -143 -95q-74 0 -74 29q0 12 4 16q1 3 21 33l2105 2577q58 77 131 77q66 0 70 -32q0 -25 -41 -66zM2658 815q-26 -295 -221 -550.5t-475 -272.5q-189 0 -299.5 122t-110.5 316q0 192 94 390.5
t258.5 326t360.5 127.5q184 0 290.5 -111.5t106.5 -290.5q0 -7 -2 -26t-2 -31zM2462 860q0 11 2 29t2 29q0 278 -209 278q-150 0 -267 -136.5t-179 -329.5t-62 -341q0 -125 48.5 -216t156.5 -91q157 0 266.5 129.5t168.5 312t73 336.5z" />
    <glyph glyph-name="ampersand" unicode="&#x26;" horiz-adv-x="3047" 
d="M2400 1413q121 -80 171 -172.5t50 -241.5q0 -315 -195 -551.5t-498.5 -362.5t-604.5 -126q-266 0 -491.5 105.5t-358.5 307.5t-133 472q0 534 582 909q-29 133 -29 238q0 203 106 384.5t285 291.5t383 110q167 0 300.5 -88.5t133.5 -247.5q0 -73 -34.5 -137.5t-94 -104.5
t-133.5 -40q-73 0 -78 49q0 30 31 85t31 91q0 70 -66.5 111.5t-146.5 52.5q-150 0 -277 -78t-206 -210t-91 -278q0 -110 4 -167q130 65 287 65q126 0 227 -70.5t101 -191.5q0 -118 -89.5 -194t-209.5 -76q-254 0 -393 286q-282 -218 -312 -553q0 -261 112.5 -479t318 -346.5
t466.5 -128.5q202 0 404 103.5t331.5 281.5t129.5 385q0 148 -94.5 264.5t-241.5 116.5q-123 0 -217.5 -92t-94.5 -215q0 -68 40 -123t108 -62q71 0 106 66q21 37 49 37q41 -6 41 -62q-6 -76 -70.5 -124t-142.5 -48q-138 0 -228.5 127.5t-90.5 270.5q0 231 181 363.5
t545 286t548 293.5t184 380q0 111 -68.5 194t-177.5 92q-90 0 -155.5 -61.5t-65.5 -151.5q0 -44 24 -59.5t77 -27t78.5 -27t25.5 -58.5q0 -66 -60 -114.5t-128 -48.5q-94 0 -149.5 79.5t-55.5 178.5q0 160 120 278.5t281 118.5q125 0 221.5 -66.5t148.5 -174.5t52 -230
q0 -211 -118 -373.5t-276.5 -269t-408.5 -242.5zM1073 1696q85 -205 234 -205q54 0 93.5 37t45.5 94q0 57 -34.5 94.5t-92.5 40.5q-117 0 -246 -61z" />
    <glyph glyph-name="quotesingle" unicode="'" horiz-adv-x="758" 
d="M582 1634h-140l58 1098h295z" />
    <glyph glyph-name="parenleft" unicode="(" horiz-adv-x="1249" 
d="M225 819q0 311 94 616t262.5 579.5t393.5 508.5q93 104 208 207.5t181 108.5q53 0 53 -33v-4q0 -20 -103.5 -110t-121.5 -112q-245 -283 -402 -681t-225.5 -824.5t-68.5 -845.5q0 -191 34 -330.5t121 -312.5q0 -53 -45 -53q-50 0 -83 35t-57.5 91t-43.5 99
q-101 249 -149 518.5t-48 542.5z" />
    <glyph glyph-name="parenright" unicode=")" horiz-adv-x="1249" 
d="M1077 1552q0 -313 -94 -618t-262.5 -580t-392.5 -510q-288 -302 -389 -311q-54 0 -54 33v4q0 20 109 115.5t117 105.5q360 406 528 1050.5t168 1296.5q0 196 -34 335.5t-122 311.5q0 54 45 54q107 0 194.5 -239t137 -551t49.5 -497z" />
    <glyph glyph-name="asterisk" unicode="*" horiz-adv-x="2056" 
d="M1200 2011q-43 -64 -145 -193.5t-133 -129.5h-4q-37 0 -94.5 59.5t-57.5 99.5q0 13 4 17q4 15 33 37l278 192q45 28 45 45q0 24 -69.5 45.5t-290.5 81.5q-107 23 -107 74v4q0 42 40.5 114t74.5 78q40 0 84.5 -35t110 -102.5t110 -102t88.5 -34.5h4q13 4 13 41
q-4 63 -14.5 192.5t-10.5 208.5q0 58 107 58q155 0 155 -74q0 -62 -31.5 -135.5t-63.5 -148t-32 -138.5q0 -13 9 -20q2 0 4 -2t4 -2q10 0 37 12l319 147q55 21 70 21q12 0 16 -4q29 -11 49.5 -73t20.5 -116q0 -78 -127 -78l-307 -12q-66 0 -70 -24v-5q0 -24 254 -303
q21 -31 24 -45v-4q0 -42 -64.5 -88.5t-111.5 -46.5q-5 0 -10 2t-6 2q-24 10 -56 88t-59 159t-45 134q-2 2 -8.5 15.5t-11.5 13.5z" />
    <glyph glyph-name="plus" unicode="+" 
d="M197 1466h839v791h168v-791h840v-159h-840v-787h-168v787h-839v159z" />
    <glyph glyph-name="comma" unicode="," horiz-adv-x="938" 
d="M627 25q0 -115 -73.5 -270.5t-175 -268.5t-177.5 -113q-33 0 -33 33q3 26 75 106t119.5 157t47.5 175q0 88 -28.5 147.5t-58 86t-76 63t-46.5 52.5q6 32 98 132.5t107 100.5q68 0 118.5 -72t76.5 -167.5t26 -161.5z" />
    <glyph glyph-name="hyphen" unicode="-" horiz-adv-x="627" 
d="M377 709h-184h-54q-87 0 -98 69q0 152 205 152h184h53q92 0 103 -70q0 -151 -209 -151z" />
    <glyph glyph-name="period" unicode="." horiz-adv-x="991" 
d="M680 213q-3 -17 -117.5 -129.5t-136.5 -112.5q-20 0 -106.5 102.5t-86.5 127.5q0 32 46 69q13 8 92 82t96 74q34 0 61.5 -26t63.5 -76t55 -66q33 -16 33 -45z" />
    <glyph glyph-name="slash" unicode="/" horiz-adv-x="1737" 
d="M2052 2732l-2228 -3203q-47 -70 -98 -70q-95 0 -95 33v4q8 30 29 61t52 70.5t55 69.5l2199 3158q35 49 82 49q27 -3 58.5 -7.5t31.5 -25.5q0 -17 -12 -37q-36 -52 -74 -102z" />
    <glyph glyph-name="zero" unicode="0" horiz-adv-x="2077" 
d="M2003 1692q0 -234 -56 -526t-176 -565.5t-314 -451.5t-453 -178q-250 0 -410 170.5t-229.5 422t-69.5 493.5q0 343 95.5 724.5t316 651.5t571.5 270q195 0 335.5 -90t225.5 -238.5t124.5 -324t39.5 -358.5zM1724 1376q0 205 -53 472.5t-178.5 467t-325.5 199.5
q-229 0 -372 -208t-205 -491.5t-62 -517.5q0 -199 59.5 -451.5t192.5 -437t338 -184.5q338 0 472 369t134 782z" />
    <glyph glyph-name="one" unicode="1" horiz-adv-x="2077" 
d="M1364 2138l-205 -1663q-3 -33 -7.5 -69t-4.5 -66q0 -116 54 -167t171 -54q60 -5 91.5 -15.5t31.5 -54.5q0 -61 -74 -61q-70 0 -209 10t-208 10q-222 0 -381 -20q-111 0 -111 57v4q5 66 98 66q116 7 171 59t71 120t33 214l188 1540q2 27 9.5 83.5t7.5 92.5q0 103 -95 103
q-38 0 -108.5 -27t-104.5 -27q-41 7 -41 49q0 37 22 55.5t64 39.5q71 30 138.5 58t130 58t122.5 69t109 85q51 49 82 49q49 0 49 -53q0 -92 -43.5 -290t-50.5 -255z" />
    <glyph glyph-name="two" unicode="2" horiz-adv-x="2077" 
d="M1184 1024l-447 -590q-49 -59 -49 -90v-4q0 -57 123 -57q51 0 156 -2t155 -2q172 0 284.5 34.5t156.5 67.5t105 90t93 57q21 0 39.5 -13.5t18.5 -35.5v-4q-3 -15 -15 -30.5t-26 -34.5l-250 -361q-44 -61 -78 -61t-98 8q-156 20 -475 20l-299 -8q-49 0 -140 -10t-135 -10
q-19 0 -40 16t-21 37q0 33 73 119l365 442q156 185 331 461.5t297 562.5t122 492q0 155 -77.5 251.5t-230.5 96.5q-160 0 -254.5 -50t-185 -129t-133.5 -79q-57 0 -57 49v4q15 109 249 279q219 163 504 163q137 0 260 -59t198 -167t75 -245q0 -184 -92.5 -400.5t-222 -415
t-279.5 -392.5z" />
    <glyph glyph-name="three" unicode="3" horiz-adv-x="2077" 
d="M1257 1610q254 -47 377 -160t123 -360q0 -212 -81 -413t-227 -361.5t-337 -252.5t-407 -92q-117 0 -312.5 66t-195.5 164q0 29 18.5 49t46.5 20q42 0 86 -17t108 -48.5t115.5 -48.5t104.5 -17q204 0 375.5 119.5t270.5 312.5t99 396q0 218 -118 330t-336 112
q-61 0 -123 -12q-38 0 -45 41q0 53 69 82q128 48 252 148.5t202.5 231t78.5 263.5q0 125 -75 209.5t-200 93.5q-149 0 -208.5 -35.5t-139 -112t-155.5 -90.5q-60 0 -66 45q0 107 209 250q232 180 479 180q186 0 318 -101t141 -280q0 -207 -114.5 -363.5t-332.5 -348.5z" />
    <glyph glyph-name="four" unicode="4" horiz-adv-x="2077" 
d="M1270 836h-918q-106 0 -106 61q0 56 67 155t182 240t119 146q283 363 476 590l405 475l147 176q55 53 99 53q49 0 49 -33q0 -88 -32.5 -245.5t-37.5 -192.5l-143 -1180q171 0 262 90q77 58 107 58q45 0 45 -41q0 -26 -29.5 -117t-72 -163t-87.5 -72h-254l-118 -963
q-8 -72 -89.5 -105.5t-169.5 -33.5q-61 0 -61 69q0 59 36.5 195t41.5 170zM1298 1081l136 1106q-141 -144 -305 -338t-311.5 -391t-268.5 -377h749z" />
    <glyph glyph-name="five" unicode="5" horiz-adv-x="2077" 
d="M795 1765q138 25 290 25q190 0 339.5 -76t236 -219t96.5 -332q0 -301 -147.5 -577t-405 -445.5t-561.5 -169.5q-62 0 -191.5 21.5t-231 64t-101.5 103.5q0 30 20.5 47.5t48.5 17.5q44 0 92.5 -13t111.5 -36t113.5 -36t100.5 -13q170 0 320 73t263 200t174.5 285.5
t61.5 326.5q0 217 -126.5 356.5t-340.5 151.5q-141 0 -294 -25q-35 0 -63 20t-28 54v8q0 28 13 61l311 934q22 67 52.5 87t103.5 20h626q81 0 115 10.5t90 58.5q44 37 86 37q58 0 58 -45v-8q-9 -35 -39.5 -86.5t-75 -114.5t-78.5 -114q-41 -54 -168 -54h-561
q-68 0 -100.5 -18t-51.5 -80l-12 -49z" />
    <glyph glyph-name="six" unicode="6" horiz-adv-x="2077" 
d="M778 1569q147 94 268 141t269 47q186 0 323.5 -94t212.5 -252t86 -342q0 -276 -106 -529t-314.5 -411t-492.5 -158q-233 0 -396.5 128t-244 332.5t-80.5 432.5q0 445 233.5 862.5t602.5 718.5q93 75 234.5 158.5t285.5 141t242 57.5q57 -7 57 -66q0 -45 -94 -78
q-202 -64 -368 -170.5t-296 -246.5t-228 -300.5t-194 -371.5zM1630 872q0 152 -46 305.5t-149 260.5t-255 114q-166 0 -290 -91t-189.5 -238.5t-65.5 -309.5q0 -177 43.5 -353t150 -298.5t285.5 -122.5q173 0 290.5 113.5t171.5 283.5t54 336z" />
    <glyph glyph-name="seven" unicode="7" horiz-adv-x="2077" 
d="M1753 2355h-692q-176 0 -250.5 -63t-126 -159.5t-98.5 -96.5q-54 0 -54 53q0 33 13 74l139 442q25 70 82 70q41 0 106 -9q152 -16 455 -16q89 0 295.5 12.5t257.5 12.5q93 0 98 -70q0 -232 -258 -766l-278 -553q-330 -646 -357 -1057q0 -62 16.5 -176.5t16.5 -183.5
q-3 -27 -35.5 -46.5t-79.5 -31.5t-98 -19.5t-61 -9.5q-127 0 -127 185q0 438 327 1016l369 643q237 430 340 749z" />
    <glyph glyph-name="eight" unicode="8" horiz-adv-x="2077" 
d="M1421 1491q204 -122 321.5 -272.5t117.5 -358.5q0 -234 -120 -439t-324 -327.5t-437 -122.5q-193 0 -355 86t-256 240.5t-94 349.5q0 495 553 787q-129 114 -201.5 216.5t-80.5 233.5q0 216 106.5 405t290.5 301.5t401 112.5q151 0 288 -68t219.5 -191t82.5 -273
q0 -436 -512 -680zM1270 1573q196 56 315 190t119 330q0 183 -105 329t-284 146q-129 0 -249.5 -63t-193.5 -173.5t-73 -242.5t67 -226.5t152.5 -149.5t251.5 -140zM946 1352q-135 -61 -234 -159t-153.5 -224.5t-54.5 -272.5q0 -144 65.5 -278.5t183.5 -216.5t267 -82
q164 0 295.5 83t206.5 224.5t75 302.5q0 118 -63.5 212.5t-158 163.5t-215.5 133.5t-214 113.5z" />
    <glyph glyph-name="nine" unicode="9" horiz-adv-x="2077" 
d="M1536 1110q-145 -96 -267 -144t-270 -48q-278 0 -442 201t-180 491q0 274 107.5 526.5t315.5 409.5t490 157q180 0 317 -75.5t226.5 -203t133.5 -286.5t44 -328q0 -297 -110 -588t-297.5 -541.5t-427.5 -451.5q-138 -115 -371 -233.5t-375 -118.5q-74 0 -74 62
q0 53 95 81q202 59 368.5 165t296 248t230.5 308t190 369zM684 1802q0 -152 46.5 -305t148 -259t256.5 -116q166 0 289 90.5t189 238t66 310.5q0 178 -43.5 354.5t-151.5 300.5t-288 124q-171 0 -287.5 -114.5t-170.5 -285.5t-54 -338z" />
    <glyph glyph-name="colon" unicode=":" horiz-adv-x="1061" 
d="M819 1380q0 -23 -37 -49q-10 -7 -73 -69.5t-96 -92.5t-44 -30q-20 0 -108 111.5t-88 125.5q5 34 81 96t103 89q27 36 57 36q28 -5 54 -36l57 -66q7 -10 50.5 -48.5t43.5 -62.5v-4zM750 213q-3 -16 -118 -129t-136 -113q-20 0 -106.5 102.5t-86.5 127.5q0 31 45 69
q14 10 95 83t94 73q33 0 61 -26t64 -76t55 -66q33 -16 33 -45z" />
    <glyph glyph-name="semicolon" unicode=";" horiz-adv-x="938" 
d="M627 25q0 -116 -75.5 -272.5t-177.5 -268t-173 -111.5q-33 0 -33 33q3 26 75 106t119.5 157t47.5 175q0 88 -28.5 147.5t-58 86t-76 63t-46.5 52.5q6 32 98 132.5t107 100.5q68 0 118.5 -72t76.5 -167.5t26 -161.5zM688 1380q0 -23 -37 -49q-192 -192 -213 -192
q-22 0 -109 110t-87 127q4 34 72 87t108 98q36 36 61 36q27 0 107 -102q11 -14 37.5 -34.5t43.5 -39.5t17 -37v-4z" />
    <glyph glyph-name="less" unicode="&#x3c;" 
d="M1966 2503v-144l-1302 -852l1302 -868v-381l-1692 1131v24z" />
    <glyph glyph-name="equal" unicode="=" 
d="M193 1753h1851v-156h-1851v156zM193 1184h1851v-160h-1851v160z" />
    <glyph glyph-name="greater" unicode="&#x3e;" 
d="M274 258v143l1303 852l-1303 869v381l1692 -1127v-28z" />
    <glyph glyph-name="question" unicode="?" horiz-adv-x="1163" 
d="M1004 1765q-95 -114 -202 -245.5t-172 -259t-65 -265.5q0 -21 8.5 -57t8.5 -61t-29 -25q-47 0 -68.5 88t-21.5 154q0 128 57.5 253t173 304.5t170 287.5t54.5 220q0 120 -99.5 213.5t-220.5 93.5q-35 0 -62 -13t-70.5 -42t-64.5 -39q-36 0 -36 28q6 59 76 110t158.5 81
t145.5 30q109 0 216.5 -57.5t175 -154t67.5 -209.5q0 -116 -50 -210.5t-150 -224.5zM705 213q-3 -16 -118 -129t-136 -113q-20 0 -106.5 102.5t-86.5 127.5q0 31 45 69q2 2 87.5 79t101.5 77q45 0 109 -81t71 -87q33 -16 33 -45z" />
    <glyph glyph-name="at" unicode="@" horiz-adv-x="3166" 
d="M2556 418l98 -49q-520 -430 -1073 -430q-250 0 -472.5 101t-394 280t-272 406t-118.5 474q0 414 180 771.5t516 576.5q378 250 934 250q307 0 569.5 -130.5t418 -369.5t155.5 -549q0 -181 -41.5 -358.5t-128 -336.5t-211.5 -280q-226 -209 -443 -209q-132 0 -199 110.5
t-67 250.5q0 41 4 57q-124 -187 -263 -306.5t-314 -119.5q-172 0 -266.5 152t-94.5 335q0 213 103 475t285 444.5t403 182.5q220 0 356 -229l33 180q77 5 192 33l-225 -950q-45 -203 -45 -279q0 -213 143 -213q177 0 365 221q278 332 278 828q0 271 -137.5 486.5
t-367.5 335.5t-498 120q-318 0 -601.5 -112t-484.5 -339q-154 -172 -265 -463t-111 -524q0 -313 157 -586.5t426 -433.5t584 -160q401 0 893 357zM2093 1528l53 184q8 34 8 53q0 117 -74.5 198t-187.5 81q-175 0 -318 -187t-225.5 -442.5t-82.5 -423.5q0 -124 59 -221.5
t174 -97.5q147 0 271.5 132t203.5 316.5t103 329.5q9 56 16 78z" />
    <glyph glyph-name="A" unicode="A" horiz-adv-x="2630" 
d="M1761 987h-823h-41q-96 0 -131 -69l-254 -508q-61 -132 -61 -193q0 -72 54.5 -100.5t149.5 -46.5q66 -11 66 -54v-4q0 -28 -57 -28q-52 0 -156 10t-156 10q-139 0 -209 -8q-17 -2 -52 -5t-54 -7q-74 0 -74 41q0 40 62 57q80 21 130.5 51.5t81 71t60 106t55.5 123.5
l1147 2237q7 13 16.5 31.5t22 29.5t31.5 12h4q41 0 65 -73l652 -2085q31 -107 64 -213.5t87.5 -183.5t151.5 -107q57 -16 57 -49q0 -49 -82 -49q-52 0 -157 10t-158 10q-54 0 -162 -10t-162 -10q-68 0 -78 36q0 33 81 62.5t121 54.5t40 96q0 93 -29 173l-139 438
q-26 80 -47 111.5t-84 31.5h-33zM1769 1331l-262 823q-4 11 -9.5 32.5t-10.5 33.5q0 41 -25 41h-4q-13 0 -28 -45q-9 -15 -18 -33t-15 -29l-467 -901q-4 -7 -13.5 -31t-15.5 -34v-4q0 -25 49 -25h41h692h17q106 0 106 49q0 25 -12.5 59t-24.5 64z" />
    <glyph glyph-name="B" unicode="B" horiz-adv-x="2359" 
d="M463 369l237 1945q9 74 9 119q0 118 -58.5 157t-151.5 59.5t-93 53.5v4q5 37 61 37q49 0 143 -14t144 -14q88 0 262 14t262 14q255 0 453.5 -43.5t331 -177.5t132.5 -385q0 -164 -73 -287t-160.5 -194.5t-187 -132t-99.5 -70.5v-4q0 -2 92.5 -40t189 -106t170 -192
t73.5 -305q0 -174 -90.5 -334t-237.5 -276q-155 -124 -326.5 -166.5t-406.5 -42.5q-87 0 -264 14t-265 14q-54 0 -166 -14t-170 -14q-73 0 -73 41v4q3 21 70 42.5t120 80.5t72 213zM1008 1528q53 -4 156.5 -14.5t166.5 -10.5q164 0 292.5 72t200.5 201t72 297
q0 169 -80 295.5t-217.5 194t-304.5 67.5q-124 0 -176 -11t-80 -57.5t-43 -165.5l-86 -700q-8 -66 -8 -103q0 -55 49 -61zM1262 1405q-238 20 -283 20q-106 0 -115 -82l-8 -73l-106 -881l-13 -106q0 -117 89 -151t231 -34q361 0 594 173t233 524q0 180 -80.5 314t-222 209
t-319.5 87z" />
    <glyph glyph-name="C" unicode="C" horiz-adv-x="2744" 
d="M2568 692q-7 -70 -40 -182t-42 -162q-11 -60 -46.5 -87.5t-129.5 -80.5q-393 -221 -835 -221q-293 0 -527 92t-395.5 266t-244.5 413.5t-83 531.5q0 303 92.5 577t268.5 484.5t428 330t563 119.5q216 0 414.5 -61.5t349 -139.5t145.5 -78q25 0 29 13q9 7 61 41h4
q46 0 46 -70q0 -93 14 -282t14 -283q0 -70 -37 -70h-4q-47 4 -69 94q-53 211 -199 374t-349.5 253t-418.5 90q-238 0 -446.5 -108t-348.5 -305q-97 -134 -152.5 -289t-76.5 -316t-21 -346q0 -293 121 -574t348.5 -459.5t526.5 -178.5q132 0 278.5 43.5t272.5 120.5
t223 189.5t135 240.5q35 119 90 119q41 0 41 -70v-29z" />
    <glyph glyph-name="D" unicode="D" horiz-adv-x="2761" 
d="M463 369l237 1945q9 74 9 119q0 118 -58.5 157t-151.5 59.5t-93 53.5v4q5 37 61 37q65 0 194 -12t195 -12q110 0 329 12t331 12q347 0 630.5 -116t451 -358.5t167.5 -598.5q0 -224 -57.5 -442t-169 -418.5t-270 -364t-351.5 -274.5q-133 -74 -277.5 -114t-298 -55
t-317.5 -15q-84 0 -250 14t-250 14q-43 0 -125 -14t-125 -14q-73 0 -73 41v4q3 21 70 42.5t120 80.5t72 213zM991 2355l-246 -1999q-8 -74 -8 -110q0 -89 62 -116.5t168 -27.5q194 0 351.5 20t310.5 78.5t280 164.5q169 142 291.5 360.5t185.5 467.5t63 474q0 164 -51 321
t-151 286t-240 212q-135 82 -298.5 108.5t-377.5 26.5q-130 0 -194 -15t-97.5 -70.5t-48.5 -180.5z" />
    <glyph glyph-name="E" unicode="E" horiz-adv-x="2335" 
d="M463 369l237 1945q9 74 9 119q0 118 -58.5 157t-151.5 59.5t-93 53.5v4q5 37 61 37q76 0 434 -20q78 0 237 -2t238 -2q153 0 461 12t461 12q53 0 53 -49l-4 -192l8 -303q0 -62 -45 -62q-43 0 -53 82q-7 152 -68.5 228.5t-162.5 98t-265 21.5q-105 0 -316 4t-315 4
q-72 0 -96 -27.5t-30 -103.5l-111 -872v-33q0 -53 65 -53h17h561q139 0 219.5 57t112.5 189q14 49 45 53h4q33 0 33 -49q0 -97 -30 -280.5t-32 -268.5q-2 -32 -5.5 -89t-16.5 -101t-39 -44q-41 0 -41 50l-4 94q-10 217 -312 217h-479q-96 0 -112.5 -14t-26.5 -76l-102 -860
q-5 -25 -5 -78q14 -123 242 -123q407 0 644 50.5t335.5 114.5t163 141.5t102.5 86.5q45 0 45 -45q0 -81 -76.5 -205.5t-152.5 -204.5q-75 -75 -169 -94.5t-245 -19.5q-133 0 -399 14t-399 14q-95 0 -281 -14t-281 -14q-73 0 -73 41v4q1 15 12 23t26 12.5t31 9.5
q116 31 145 89.5t48 201.5z" />
    <glyph glyph-name="F" unicode="F" horiz-adv-x="2126" 
d="M971 1479h508q140 0 220.5 35t110.5 153q21 57 45 57q33 0 33 -32q0 -83 -29.5 -346.5t-35.5 -358.5q-9 -53 -45 -53q-37 0 -37 86q0 151 -54 219t-200 68h-492q-83 0 -110.5 -24t-36.5 -107l-94 -758q-9 -83 -9 -119q0 -175 189 -213q3 -1 37 -7.5t53.5 -18.5t19.5 -31
v-4q0 -37 -61 -37q-58 0 -174 10t-174 10q-60 0 -181 -10t-180 -10q-73 0 -73 41v4q3 21 70 42.5t120 80.5t72 213l237 1945q9 74 9 119q0 118 -58.5 157t-151.5 59.5t-93 53.5v4q5 37 61 37q61 0 389 -20q71 0 215 -2t215 -2l422 4q328 20 393 20q41 0 41 -41q0 -15 2 -48
t2 -50t-2 -49t-2 -49q0 -56 12.5 -160t12.5 -168q0 -48 -33 -53h-4q-38 0 -49 78q-11 155 -87.5 238.5t-191.5 111t-282 31.5q-196 12 -394 12q-109 -9 -127 -176l-102 -828q0 -7 -2 -26t-2 -27q0 -61 78 -61z" />
    <glyph glyph-name="G" unicode="G" horiz-adv-x="2859" 
d="M2650 2515q0 -22 -2 -70t-2 -73q0 -69 12.5 -197t12.5 -205q0 -86 -37 -86h-4q-39 0 -50 62q-60 226 -229 384.5t-398.5 237t-465.5 78.5q-242 0 -426 -104.5t-300.5 -281.5t-172.5 -396.5t-56 -446.5q0 -335 122 -643t367.5 -500t588.5 -192q291 0 440.5 122
t196.5 323.5t47 500.5q0 131 -46 184t-117.5 61.5t-122 14t-50.5 43.5q0 8 4 12q14 33 82 33h389q135 0 287 21q69 0 73 -33v-4q0 -39 -86 -62q-69 -16 -92 -64.5t-30 -139.5q-3 -53 -32.5 -322t-29.5 -420q0 -19 6 -58t6 -56v-9q0 -31 -49 -41q-116 -25 -297.5 -94
t-297 -102t-261.5 -33q-328 0 -586 92t-438 271t-274 440t-94 594q0 289 100 548t287 456t438 305t547 108q192 0 368.5 -54.5t338.5 -129t182 -74.5q29 0 73 53q16 8 29 8q49 0 49 -61z" />
    <glyph glyph-name="H" unicode="H" horiz-adv-x="2986" 
d="M963 1499h1273q63 0 85 14t30 72l86 729q8 82 8 119q0 117 -58 156.5t-149.5 60t-91.5 53.5v4q5 37 62 37q60 0 176 -10t176 -10t179 10t177 10q74 0 74 -37v-4q-4 -34 -70 -45q-81 -23 -118.5 -60.5t-49 -87t-20.5 -147.5l-242 -1945q-8 -74 -8 -119q0 -175 189 -213
q114 -16 114 -57v-4q-5 -37 -61 -37q-60 0 -177 10t-175 10q-60 0 -181 -10t-180 -10q-69 0 -69 41v4q0 15 11 23.5t26.5 12.5t31.5 9q116 31 145 90.5t44 200.5l102 827q4 21 4 57q0 47 -20 60.5t-70 13.5h-1274q-77 0 -86 -65l-102 -844q-9 -83 -9 -119q0 -175 189 -213
q3 -1 37 -7.5t53.5 -18.5t19.5 -31v-4q0 -37 -61 -37q-60 0 -179 10t-177 10q-60 0 -177 -10t-176 -10q-73 0 -73 41v4q3 21 70 42.5t120 80.5t72 213l237 1945q9 74 9 119q0 118 -58.5 157t-151.5 59.5t-93 53.5v4q5 37 61 37q60 0 179 -10t177 -10q59 0 178 10t179 10
q73 0 73 -37v-4q-5 -28 -41 -37q-98 -24 -136.5 -52t-52.5 -75.5t-32 -175.5l-94 -753q0 -9 -2 -25t-2 -24q0 -62 70 -62z" />
    <glyph glyph-name="I" unicode="I" horiz-adv-x="1245" 
d="M463 369l237 1945q9 74 9 119q0 118 -58.5 157t-151.5 59.5t-93 53.5v4q5 37 61 37q60 0 179 -10t177 -10q59 0 178 10t179 10q73 0 73 -37v-4q-5 -28 -41 -37q-98 -24 -136.5 -52t-52.5 -75.5t-32 -175.5l-237 -1945q-9 -83 -9 -119q0 -175 189 -213q3 -1 37 -7.5
t53.5 -18.5t19.5 -31v-4q0 -37 -61 -37q-60 0 -176 10t-176 10t-179 -10t-178 -10q-73 0 -73 41v4q3 21 70 42.5t120 80.5t72 213z" />
    <glyph glyph-name="J" unicode="J" horiz-adv-x="1282" 
d="M664 688l200 1622q8 82 8 119q0 117 -59 157.5t-151.5 61t-92.5 51.5v4q6 41 62 41q60 0 178 -12t178 -12t179 12t177 12q74 0 74 -45q-6 -26 -74 -45q-81 -23 -118.5 -60.5t-49 -87t-20.5 -147.5l-184 -1482q-32 -274 -104 -491t-220 -382q-224 -250 -454 -250
q-66 0 -125.5 26.5t-59.5 84.5q0 72 30.5 175t84.5 103h4q27 -3 60 -69t61.5 -100.5t91.5 -34.5q168 0 229.5 222.5t94.5 526.5z" />
    <glyph glyph-name="K" unicode="K" horiz-adv-x="2740" 
d="M463 369l237 1941q9 74 9 119q0 117 -58 156.5t-149.5 60t-91.5 53.5v4q0 41 57 41q60 0 179 -10t177 -10q59 0 178 10t179 10q73 0 73 -41v-4q-7 -27 -69 -45q-80 -22 -118 -60t-49.5 -84t-25.5 -151l-98 -819q-4 -16 -4 -45q0 -37 12 -45q2 0 6 -2t6 -2q32 0 269 184
t432 340l344 283q179 151 242 217q28 42 28 82q0 41 -22.5 61t-67.5 34.5t-63.5 26t-18.5 38.5q16 32 62 32q62 0 184 -10t184 -10q168 0 250 8q20 0 63 6t64 6t41.5 -14t20.5 -35q0 -26 -58 -45q-159 -32 -285 -111t-321 -233l-979 -762q-65 -52 -65 -74q0 -28 36 -73
l820 -987q129 -156 244 -225.5t309 -98.5q81 -18 81 -61q0 -41 -45 -41q-47 0 -143 10t-143 10q-133 0 -242 -16q-47 0 -79.5 12t-53.5 29t-34.5 36t-20.5 29l-926 1143q-41 55 -53 57h-4q-52 0 -83.5 -50.5t-35.5 -104.5l-90 -721q-9 -92 -9 -119q0 -180 189 -217
q110 -15 110 -53v-4q0 -41 -61 -41q-60 0 -176 10t-176 10t-179 -10t-178 -10q-73 0 -73 41v4q3 23 69 45q116 31 145 90.5t48 204.5z" />
    <glyph glyph-name="L" unicode="L" horiz-adv-x="2142" 
d="M463 369l237 1945q9 74 9 119q0 118 -58.5 157t-151.5 59.5t-93 53.5v4q5 37 61 37q60 0 179 -10t177 -10q59 0 178 10t179 10q73 0 73 -37v-4q-5 -28 -41 -37q-98 -24 -136.5 -52t-52.5 -75.5t-32 -175.5l-246 -1994q0 -12 -2 -40t-2 -42q0 -123 295 -123q361 0 643 49
q284 60 402 225q3 4 25.5 36.5t39.5 49t37 17.5h8q33 0 33 -41q-6 -75 -56 -182.5t-100 -170.5q-78 -102 -180 -130.5t-266 -28.5q-157 0 -475 14t-475 14q-68 0 -202 -14t-196 -14q-73 0 -73 41v4q3 21 70 42.5t120 80.5t72 213z" />
    <glyph glyph-name="M" unicode="M" horiz-adv-x="3514" 
d="M3121 2175l-29 -1757q0 -152 42 -230.5t176 -105.5q118 -17 118 -57q0 -41 -57 -41q-60 0 -179 10t-177 10q-60 0 -181 -10t-180 -10q-82 0 -82 45q0 28 67 44t113 73t46 223l24 1507q0 61 -24 61q-3 0 -5 -2t-4 -2q-24 -11 -94 -147l-831 -1720q-24 -54 -58 -54
q-18 0 -31.5 13.5t-23.5 34t-18 34.5l-758 1745q-30 45 -33 45q-29 0 -29 -69l-233 -1364q-8 -42 -16 -132q0 -198 200 -217q135 -15 135 -61q0 -57 -81 -57q-54 0 -158 10t-158 10q-143 0 -213 -8q-17 -2 -54 -5t-56 -7q-82 0 -86 41q0 52 106 73q96 19 142.5 94.5
t67.5 179.5t44 222l123 680q48 255 75 445.5t27 373.5q0 173 -69 347.5t-209 193.5q-70 0 -135 -13q-66 0 -66 33q0 90 221 90q172 -8 254 -8q80 0 120.5 -18.5t68.5 -91.5l307 -709q94 -226 159 -381.5t173 -413.5l241 -565l17 -37q2 -2 5 -8t5.5 -9t5.5 -3q17 0 36.5 37
t24.5 57l648 1323q50 101 303 655q41 95 63 127.5t84 32.5q52 0 156 6t155 6q62 0 62 -32v-5q0 -20 -20 -32.5t-60 -24t-43 -12.5q-63 -18 -96.5 -69.5t-46.5 -118.5t-16 -140t-5 -135z" />
    <glyph glyph-name="N" unicode="N" horiz-adv-x="2982" 
d="M561 627l184 1265q25 132 25 279q0 181 -94.5 324t-269.5 143q-16 0 -50 -6t-53 -6q-41 0 -41 24q0 53 67 73.5t117 20.5q56 0 165 -4t163 -4q76 0 123 -57l459 -656q235 -331 483 -729l442 -704q43 -70 66 -70q4 0 12 8q13 13 58 293.5t89 592t50 380.5l45 438
q8 132 8 201q0 116 -57.5 154t-151.5 58t-102 54q0 45 74 45q48 0 147 -10t152 -10q51 0 153 10t154 10q68 0 78 -37q0 -27 -13.5 -33t-56.5 -16q-111 -15 -161.5 -106.5t-63.5 -226.5t-21 -232q-90 -886 -213 -1561l-78 -426q-10 -57 -23 -87.5t-54 -30.5q-31 0 -62 45
l-459 725l-245 377q-94 144 -172 265t-111 169l-303 430q-5 7 -17 30t-24.5 39.5t-28.5 16.5h-4q-12 -4 -17.5 -18.5t-9 -33t-6.5 -34.5l-184 -1512q-4 -37 -7.5 -66.5t-6 -56t-2.5 -57.5q0 -185 205 -217q98 -14 98 -53q0 -49 -90 -49q-56 0 -164 10t-164 10t-166 -10
t-166 -10q-49 0 -49 37v4q3 27 86 61q83 27 131.5 82.5t72 130t34 156.5t20.5 168z" />
    <glyph glyph-name="O" unicode="O" horiz-adv-x="2941" 
d="M2920 1516q0 -436 -164 -791.5t-483 -560.5t-762 -205q-377 0 -670 150t-456.5 431t-163.5 660q0 303 102 587t291.5 507t453 351t574.5 128q341 0 636 -168.5t468.5 -457t173.5 -631.5zM2589 1556q0 292 -123.5 546t-352 407t-524.5 153q-264 0 -465.5 -126t-331 -334.5
t-192.5 -460t-63 -496.5q0 -296 122.5 -564.5t351.5 -435.5t529 -167q368 0 604 222t340.5 560t104.5 696z" />
    <glyph glyph-name="P" unicode="P" horiz-adv-x="1982" 
d="M983 2294l-229 -1876q-9 -83 -9 -119q0 -179 213 -213q27 -4 55.5 -8t50 -15.5t21.5 -37.5q-8 -37 -102 -37q-60 0 -179 10t-177 10q-60 0 -177 -10t-176 -10q-73 0 -73 41v4q3 21 70 42.5t120 80.5t72 213l237 1945q9 74 9 119q0 118 -58.5 157t-151.5 59.5t-93 53.5v4
q5 37 61 37q71 0 216 -12t218 -12q90 0 273 12t272 12q194 0 347 -80t239 -226.5t86 -336.5q0 -192 -85 -368.5t-235.5 -298.5t-339.5 -156q-86 -16 -254 -16q-53 0 -78 4q-52 4 -81 7.5t-60 16.5t-31 41q13 17 37 17q50 0 109 -2.5t92 -2.5q168 0 305 96t219.5 251.5
t93.5 320.5q0 169 -76.5 306t-211.5 218.5t-305 90.5q-146 0 -177 -66q-29 -59 -57 -266z" />
    <glyph glyph-name="Q" unicode="Q" horiz-adv-x="3047" 
d="M1556 -37q260 -173 557 -320t488 -147q151 0 246 152q21 41 41 41h4q14 0 20 -21q0 -94 -71 -181.5t-174.5 -143t-196.5 -60.5q-231 0 -486.5 116.5t-617.5 356.5t-492.5 320t-242.5 80q-85 0 -150 -51t-101 -131.5t-36 -161.5q0 -75 42.5 -163.5t47.5 -123.5v-4
q0 -33 -37 -33q-83 0 -127.5 140.5t-44.5 269.5q0 154 82.5 269.5t229.5 172.5q-312 387 -312 856q0 315 103.5 602t296 507t462.5 344t592 124q337 0 623.5 -172t452 -462t165.5 -628q0 -254 -57 -489t-179.5 -437t-316.5 -352q-170 -134 -353 -189t-458 -81zM2597 1544
q0 300 -121.5 556.5t-351 409t-535.5 152.5q-251 0 -448.5 -115.5t-331 -310t-201 -429t-67.5 -472.5q0 -319 108.5 -607.5t334 -469t552.5 -180.5q367 0 605.5 218t347 555.5t108.5 692.5z" />
    <glyph glyph-name="R" unicode="R" horiz-adv-x="2331" 
d="M856 1253l-102 -835q-9 -92 -9 -119q0 -180 189 -217q110 -15 110 -53v-4q0 -41 -61 -41q-58 0 -174 10t-174 10q-60 0 -181 -10t-180 -10q-73 0 -73 41v4q3 23 69 45q116 31 145 90.5t48 204.5l237 1941q9 74 9 119q0 117 -59 157.5t-151.5 61t-92.5 51.5v4q6 41 61 41
q38 0 117 -14t121 -14q116 0 352 14t352 14q205 0 368.5 -56.5t260 -189t96.5 -344.5q0 -191 -78.5 -324t-180 -208t-216 -135t-123.5 -78q0 -2 -2 -6t-2 -6q0 -75 54 -224t152.5 -377t104.5 -243q76 -177 119 -260t126.5 -151t209.5 -68q33 0 37 -17v-4q0 -42 -103.5 -62
t-167.5 -20q-309 0 -426 324l-348 958q-26 74 -50.5 94.5t-84.5 20.5q-30 0 -92 -2t-92 -2q-68 0 -88.5 -22.5t-26.5 -88.5zM995 2400l-86 -717q-8 -56 -8 -90q0 -73 82 -86q94 -16 283 -16q278 0 419.5 170t141.5 453q0 165 -72.5 282.5t-199.5 175.5t-289 58
q-125 0 -193 -41q-40 -27 -53 -67.5t-25 -121.5z" />
    <glyph glyph-name="S" unicode="S" horiz-adv-x="1839" 
d="M913 1753l459 -479q311 -318 311 -647q0 -229 -133.5 -380t-340 -219.5t-431.5 -68.5q-249 0 -365 31.5t-169.5 141t-71.5 355.5q0 78 45 78q32 0 49 -53q44 -127 142 -229.5t228 -159.5t269 -57q137 0 258 56t194 162.5t73 247.5q0 127 -67 236.5t-183 230.5l-455 492
q-172 188 -262 352t-90 365q0 164 79 292t216.5 200.5t298.5 72.5q107 0 196 -23t196.5 -59.5t143.5 -36.5q20 0 54.5 22.5t56.5 22.5h4q45 0 45 -98q0 -87 18.5 -237t22.5 -230q0 -65 -45 -70h-4q-46 0 -74 95q-57 206 -222.5 353t-375.5 159q-153 0 -256.5 -97.5
t-103.5 -251.5q0 -269 290 -569z" />
    <glyph glyph-name="T" unicode="T" horiz-adv-x="2408" 
d="M1618 2425l-246 -2007q-8 -74 -8 -119q0 -181 205 -213q123 -21 123 -53q0 -45 -90 -45q-60 0 -179 10t-178 10q-60 0 -176 -10t-176 -10q-102 0 -102 41v4q4 30 37 37t93 23t101.5 77t58.5 199l250 2056q0 94 -86 94h-430q-171 0 -263 -48t-117.5 -93t-60 -129
t-71.5 -86h-4q-57 0 -57 90q0 64 65 217q7 18 29.5 108t54.5 128t105 38q60 0 176 -8q274 -16 831 -16h238q397 0 598 16q90 8 135 8q75 0 97 -29t22 -98q0 -32 -2 -98t-2 -98q0 -31 2 -94t2 -95q0 -90 -45 -90q-48 0 -67 117.5t-62.5 188.5t-194.5 71h-520q-80 0 -86 -94z
" />
    <glyph glyph-name="U" unicode="U" horiz-adv-x="2925" 
d="M2605 2003q5 47 18.5 143t20 158.5t6.5 128.5q0 114 -58 153.5t-149.5 61t-91.5 55.5v4q0 37 62 37q49 0 147 -10t147 -10q53 0 152 10t147 10q74 0 74 -41v-4q-6 -23 -74 -45q-116 -27 -146.5 -86.5t-49.5 -204.5l-172 -1159q-46 -297 -135.5 -527t-237 -389.5
t-374 -244t-539.5 -84.5q-914 0 -914 803q0 128 13 246l118 1355q2 18 3.5 45.5t5.5 57.5q0 102 -39 137t-98.5 49t-59.5 39q0 53 82 53q46 0 142 -10t149 -10q49 0 147 10t148 10q73 0 73 -41v-4q0 -17 -37 -37q-99 -24 -138.5 -50t-54.5 -78.5t-28 -170.5l-61 -475
q-40 -390 -59 -647t-19 -532q0 -192 95 -330.5t253.5 -209.5t347.5 -71q211 0 408.5 72t337.5 215q99 101 157 221t89.5 250t60.5 303l70 406q9 55 61 438z" />
    <glyph glyph-name="V" unicode="V" horiz-adv-x="2810" 
d="M1237 53l-631 2298q-37 134 -90.5 199.5t-116.5 85.5t-93.5 27.5t-35.5 35.5v4q0 41 66 41q58 0 170 -10t170 -10t170 10t170 10q97 0 102 -41q0 -40 -74 -49q-135 -11 -135 -168q0 -117 64 -388t147.5 -556t153.5 -506l127 -393q6 -24 15 -57t22.5 -64t27.5 -35h4
q13 0 50 45q344 580 610 1143l201 426q9 19 55.5 108.5t70 150.5t29.5 122q0 108 -47 132.5t-135.5 35.5t-91.5 53q0 41 61 41q56 0 169 -10t167 -10q58 0 173 10t171 10q70 0 70 -37q0 -45 -78 -45q-94 -10 -184 -114q-57 -71 -136 -222.5t-202.5 -408.5t-145.5 -299
l-245 -471q-126 -236 -230 -422l-217 -385q-13 -23 -70 -124.5t-116.5 -179t-100.5 -77.5h-4q-32 7 -57 94z" />
    <glyph glyph-name="W" unicode="W" horiz-adv-x="3756" 
d="M2109 1487l115 -418q21 -91 49 -182t69.5 -213.5t61.5 -186.5q0 -32 21 -32q16 0 37 27.5t42.5 67.5t26.5 48q126 229 329.5 615t381 750.5t207.5 485.5q8 42 8 54q0 77 -57.5 114t-139.5 37q-90 0 -90 45t54 45q55 0 168 -10t167 -10q183 0 312 20q90 0 94 -45v-4
q0 -32 -66 -41q-158 -13 -286 -254q-84 -159 -225 -441t-257.5 -519t-248.5 -491t-256 -470l-230 -401q-58 -119 -102 -119q-20 0 -32.5 17.5t-19 42t-10.5 42.5q-194 631 -315 1069l-356 -638q-23 -45 -93 -179t-138.5 -238t-104.5 -104q-34 0 -45.5 27.5t-24.5 87.5
l-598 2322q-29 113 -76.5 166.5t-101.5 65t-83.5 17t-29.5 34.5v4q0 49 74 49q58 0 170 -10t170 -10t172 10t172 10q49 0 49 -37q0 -35 -74 -45q-143 -18 -143 -184q0 -50 8 -97.5t30 -137.5t24 -97l401 -1573q29 -118 49 -118h4q13 0 30.5 26.5t43.5 77.5t45 84l373 676
l-267 1028q-65 285 -233 303q-98 12 -98 49v4q6 41 65 41q56 0 166 -10t166 -10t168 10t168 10q57 0 57 -37v-4q0 -23 -37 -32q-143 -23 -143 -156q0 -102 28 -236.5t81 -324.5t71 -266l238 458q68 135 99.5 212.5t31.5 164.5q0 63 -48.5 101t-111.5 38q-10 1 -33 3.5
t-36 9.5t-13 24v4q0 41 53 41q52 0 156 -10t156 -10q51 0 156 10t155 10q44 0 49 -32q0 -40 -86 -50q-68 -10 -130 -86.5t-117.5 -188t-88.5 -179.5z" />
    <glyph glyph-name="X" unicode="X" horiz-adv-x="2793" 
d="M1638 1499l246 -610q186 -460 328 -639q115 -144 336 -144q79 0 139 41q39 33 61 33q41 0 41 -49q-25 -143 -426 -143q-306 0 -421 159q-57 75 -124 212t-119 262.5t-136.5 341.5t-112.5 282l-451 -627q-26 -36 -62 -86.5t-66.5 -100t-53 -104t-22.5 -98.5q0 -69 64 -108
t140 -47q50 -7 72.5 -12.5t22.5 -32.5q0 -41 -58 -41q-64 0 -193 10t-192 10q-66 0 -197 -10t-196 -10q-56 0 -61 32v5q0 24 49 45q156 47 289 182t272 330l586 807l-254 614q-96 239 -212.5 400t-291.5 161q-131 0 -213 -92t-82 -223q0 -115 37 -189q22 -46 94 -53
q57 -6 57 -57q0 -62 -65 -70q-121 0 -177.5 132t-56.5 274q0 132 59.5 240.5t166.5 171.5t241 63q280 0 432 -192t297 -537l152 -385l459 622q65 93 98 148t33 118q0 64 -32 79t-115 36.5t-83 56.5q0 37 50 37q56 0 171 -10t173 -10q56 0 173 10t175 10q57 0 57 -37v-4
q-3 -24 -78 -45q-118 -24 -254.5 -160.5t-270.5 -319.5t-237 -327z" />
    <glyph glyph-name="Y" unicode="Y" horiz-adv-x="2408" 
d="M1458 1069l-78 -651q-8 -74 -8 -119q0 -175 189 -213q110 -16 110 -57v-4q0 -37 -61 -37q-58 0 -173 10t-171 10q-60 0 -179 -10t-178 -10q-69 0 -69 41v4q4 33 34 39t82 20.5t89.5 77t52.5 199.5l94 745q0 13 2 39t2 39q0 71 -70 192l-467 975q-74 149 -139.5 222.5
t-187.5 76.5q-86 12 -86 45q0 41 61 41q63 0 188 -10t189 -10q63 0 192 10t193 10q66 0 66 -37v-4q0 -24 -65 -43.5t-98.5 -39t-33.5 -76.5q0 -86 66 -226l376 -827q23 -55 41 -66h4q16 0 41 37q162 214 316 463q105 160 165.5 254.5t113.5 194.5t53 149q0 118 -177 127
q-90 0 -94 49q0 45 70 45q53 0 158 -10t157 -10q54 0 162 10t162 10q48 0 53 -32v-5q0 -34 -70 -53q-86 -19 -152 -82.5t-123 -155t-106 -171.5q-42 -66 -245 -351t-319 -486t-132 -339z" />
    <glyph glyph-name="Z" unicode="Z" horiz-adv-x="2126" 
d="M623 262h1028h49q224 0 233 107v4q0 48 -86 65q-52 11 -85 45t-33 82q0 64 49 108t114 44q88 0 134.5 -71.5t46.5 -166.5q0 -209 -238 -397q-132 -102 -397 -102q-23 0 -67 2t-64 2l-451 28q-17 0 -49 2t-49 2q-93 0 -277 -16t-276 -16q-45 0 -53 20q0 3 -2.5 8.5
t-2.5 7.5q0 19 13 39t32.5 41t28.5 31q30 30 96.5 127t186.5 279t181.5 275t105.5 155q301 428 598 888l258 394q2 4 26.5 42.5t35.5 62.5t11 50q0 37 -53 37q-125 0 -368 16.5t-381 16.5q-208 0 -387 -101t-179 -296q0 -78 17 -115t48 -54.5t58 -31.5q25 -12 25 -29v-4
q0 -23 -26.5 -34t-51.5 -11q-92 0 -130 81.5t-38 188.5q0 200 107 356t282.5 240t372.5 84q69 0 106 -4l537 -41q111 -12 221 -12q32 0 88.5 10.5t91.5 10.5q41 0 41 -37v-4q-2 -28 -102 -181l-1434 -2134q-28 -37 -28 -61v-4q5 -29 53 -29h33z" />
    <glyph glyph-name="bracketleft" unicode="[" horiz-adv-x="1249" 
d="M295 -360l377 3092q14 86 69 86h45l537 21q74 0 74 -58q0 -36 -25.5 -57t-64.5 -21h-242q-69 0 -99.5 -31t-39.5 -104l-336 -2761q-4 -20 -4 -57q5 -78 110 -78h242q74 0 74 -57q0 -38 -27 -60t-67 -22l-533 21q-5 0 -21 2t-24 2q-44 0 -49 28q0 9 2 27t2 27z" />
    <glyph glyph-name="backslash" unicode="\" horiz-adv-x="1737" 
d="M344 2855l1425 -3158l74 -160q12 -18 12 -41q-4 -37 -86 -37q-68 0 -98 70l-1446 3203q-3 8 -30 57t-27 74q4 27 61 37h41q52 0 74 -45z" />
    <glyph glyph-name="bracketright" unicode="]" horiz-adv-x="1249" 
d="M1118 2732l-377 -3092q-5 -50 -32 -66t-82 -20l-537 -21q-74 0 -74 61q0 37 27 57.5t63 20.5h242q72 0 102.5 31t36.5 104l340 2761q0 135 -110 135h-242q-74 0 -74 66q7 70 95 70l532 -21h45q44 0 49 -29q0 -36 -4 -57z" />
    <glyph glyph-name="asciicircum" unicode="^" 
d="M2241 1176h-144l-852 1302l-868 -1302h-381l1130 1691h25z" />
    <glyph glyph-name="underscore" unicode="_" 
d="M-78 -360h2167v-160h-2167v160z" />
    <glyph glyph-name="grave" unicode="`" 
d="M1053 2290l270 -328q37 -46 37 -70q0 -41 -33 -41q-43 0 -121 32t-150 69.5t-147 75.5q-151 70 -151 172q0 67 44 115t111 48q74 0 140 -73z" />
    <glyph glyph-name="a" unicode="a" horiz-adv-x="1843" 
d="M1163 426q-348 -455 -712 -455q-164 0 -248 124.5t-84 297.5q0 175 75.5 390.5t208 406.5t307 311.5t367.5 120.5q38 0 72.5 -7t70 -16.5t80.5 -19.5t80 -10q53 3 140 139q36 66 73 66q13 -16 13 -13q4 -8 4 -24q0 -25 -4 -37q-66 -197 -129.5 -618.5t-63.5 -643.5
q0 -183 62 -196q119 0 213 209q33 65 61 65h4q29 -7 29 -33q0 -84 -69.5 -203.5t-171 -205.5t-189.5 -86q-70 0 -108.5 77.5t-55.5 191.5t-25 169zM1315 1409q-3 58 -71 90.5t-138 36.5q-211 0 -379.5 -176t-261 -430t-92.5 -459q0 -133 69.5 -216t196.5 -83t247.5 87.5
t202.5 221t99 256.5q8 67 53 263t59.5 267.5t14.5 141.5z" />
    <glyph glyph-name="b" unicode="b" horiz-adv-x="1737" 
d="M618 1233q106 175 276 292t359 117q139 0 234 -71.5t141.5 -188.5t46.5 -256q0 -244 -135 -516.5t-360 -455.5t-471 -183q-180 0 -303 83.5t-123 252.5q0 102 12 201l250 2023q2 15 4 41t4 41q0 94 -107 94h-110q-62 0 -62 37v4q5 36 78 45q58 4 197 25t221 21
q37 0 37 -70zM557 762q-4 -35 -24.5 -201t-20.5 -262t68 -156.5t165 -60.5q188 0 341.5 139.5t244.5 345.5t103 387q0 189 -71.5 331t-240.5 153q-174 0 -292 -97.5t-183 -250.5t-90 -328z" />
    <glyph glyph-name="c" unicode="c" horiz-adv-x="1462" 
d="M1192 1298q-119 127 -174 174.5t-146 47.5q-175 0 -285 -132.5t-156 -320.5t-46 -358q0 -220 107 -373t315 -164q103 0 210.5 47.5t199 108.5t90.5 61h4q20 0 20 -24q0 -58 -106.5 -164.5t-256 -168t-300.5 -61.5q-265 0 -395 176t-130 455q0 229 108.5 472.5t301 403.5
t430.5 160q128 0 267 -62.5t139 -174.5q0 -52 -31.5 -92.5t-79.5 -46.5q-56 0 -86 36z" />
    <glyph glyph-name="d" unicode="d" horiz-adv-x="1831" 
d="M1106 389q-226 -418 -549 -418q-219 0 -324.5 144.5t-105.5 371.5q0 236 113.5 502.5t314 447.5t444.5 181q113 0 246 -70l123 983q2 15 4 41t4 41q0 94 -106 94h-115q-61 0 -61 37v4q4 36 77 45q290 24 328 33q47 13 90 13q37 0 37 -50v-20l-266 -2183q-12 -99 -12 -193
q0 -176 86 -180q84 0 139.5 60.5t114.5 164.5q30 33 41 33q32 0 32 -33q0 -86 -69 -192t-171.5 -180t-189.5 -74q-225 0 -225 397zM1155 811l66 512q0 217 -222 217q-192 0 -333.5 -153.5t-217.5 -371.5t-88 -405q0 -172 69 -307t226 -135q226 0 350 196.5t150 446.5z" />
    <glyph glyph-name="e" unicode="e" horiz-adv-x="1421" 
d="M369 791q-9 -56 -9 -82q0 -219 127.5 -380t339.5 -161q243 0 398 147q32 45 57 45q29 0 29 -36q-4 -91 -120 -172.5t-272 -131t-260 -49.5q-231 0 -379.5 150t-148.5 387q0 234 109.5 500.5t306 448t440.5 181.5q80 0 160 -34.5t130 -99.5t50 -148q0 -199 -158.5 -327
t-379 -183t-420.5 -55zM377 864q154 0 321 51.5t281.5 161t114.5 271.5q0 81 -49 132.5t-132 51.5q-214 0 -348.5 -208t-187.5 -460z" />
    <glyph glyph-name="f" unicode="f" horiz-adv-x="1204" 
d="M565 1475h-266q-94 0 -94 53q0 82 110 82h271q36 245 126 512t251.5 465t384.5 198q69 0 104 -16.5t35 -73.5q0 -76 -17 -201q0 -45 -28 -45q-27 0 -91 56t-94 78t-81 22q-84 0 -147 -108.5t-105 -267t-69.5 -325.5t-47.5 -294h303q94 0 94 -58q0 -77 -110 -77h-303
l-185 -1487q-39 -339 -188 -492q-164 -180 -336 -180q-40 0 -71 22t-31 60q0 60 26 161t68 101h4q21 0 39 -62t33.5 -92t62.5 -30q43 0 71.5 47t44 113t24 141.5t12.5 107.5l110 918q72 549 90 672z" />
    <glyph glyph-name="g" unicode="g" horiz-adv-x="1475" 
d="M1176 1495q102 -194 102 -397q0 -150 -70.5 -294.5t-194.5 -234.5t-276 -90q-36 0 -104.5 20.5t-108.5 20.5t-65 -37.5t-25 -81.5q0 -111 103.5 -161.5t346 -123t367.5 -160.5t125 -255q0 -224 -195.5 -310.5t-455.5 -86.5q-256 0 -478 113t-222 345q0 153 98.5 251.5
t253.5 117.5q-62 86 -62 193q0 116 103 213q16 8 16 20v4q0 -6 -44 69t-80 178t-36 208q0 148 69 293t190 237t270 92q69 0 188 -30.5t176 -34.5q109 0 189 29q110 49 147 49q31 0 54.5 -27t23.5 -59q0 -65 -52.5 -96t-123.5 -31q-63 0 -229 57zM1073 1159q0 85 -28.5 180
t-89 160.5t-148.5 65.5q-176 0 -248 -187.5t-72 -394.5q0 -156 61 -287t197 -131q182 0 255 191t73 403zM422 78q-99 -21 -160 -95.5t-61 -175.5q0 -133 77.5 -227.5t200 -142t250.5 -47.5q159 0 298.5 48.5t139.5 180.5q0 104 -111.5 167.5t-338.5 149t-295 142.5z" />
    <glyph glyph-name="h" unicode="h" horiz-adv-x="1909" 
d="M631 1282q146 169 278 262.5t299 93.5q168 0 240 -132.5t72 -313.5q0 -66 -4 -98l-58 -508q-8 -58 -8 -168q0 -167 78 -180q78 0 150 60.5t112 143.5q23 41 49 41h8q25 -8 25 -28q0 -100 -71 -210.5t-179 -183.5t-213 -73q-188 0 -188 356q0 131 4 193l41 553v98
q0 235 -152 246q-149 0 -262 -73.5t-180.5 -198t-85.5 -273.5l-103 -803q-6 -56 -34.5 -77t-92.5 -21q-106 0 -106 69q0 5 2 15t2 14l299 2445l12 86q0 95 -110 95h-119q-62 0 -62 32v4q4 37 78 50q227 8 332 32q17 2 44.5 7.5t49.5 5.5q37 0 37 -50v-20z" />
    <glyph glyph-name="i" unicode="i" horiz-adv-x="1008" 
d="M426 823l82 496q4 24 12 82q0 94 -119 94h-127q-69 0 -69 37v4q10 45 86 45q80 2 253.5 23.5t205.5 21.5q45 0 45 -49q0 -4 -2 -10t-2 -11l-111 -552q-86 -384 -86 -623q0 -123 61 -123q94 0 181 164q20 49 49 49q28 -6 28 -41q-6 -88 -73 -192.5t-165 -177t-188 -72.5
q-122 18 -122 344q0 146 61 491zM901 2232q0 -22 -29 -49q-9 -8 -45 -53.5t-62 -71.5t-48 -26q-27 7 -67.5 88t-43.5 84q-16 24 -16 41q0 28 74 102q16 21 33 44t32 38.5t33 15.5h4q16 0 37 -32q45 -93 82 -144q16 -16 16 -37z" />
    <glyph glyph-name="j" unicode="j" horiz-adv-x="1049" 
d="M348 -217l184 1532l13 86q0 94 -111 94h-115q-61 0 -61 33v4q4 27 79 41.5t189 23t142 13.5q56 16 90 16q37 0 37 -49v-25l-197 -1601q-17 -151 -79 -299.5t-174 -250t-263 -101.5q-117 0 -123 114q-12 55 -12 119q0 70 37 70q32 0 54.5 -20t50.5 -59t50 -58.5t54 -22.5
h4q40 0 69 38.5t45.5 97.5t24.5 118t12 86zM885 2228q0 -16 -29 -45l-61 -75.5t-90 -75.5h-5q-16 3 -73.5 95t-57.5 118q0 21 27 48.5t51 49.5q16 21 31.5 43.5t35 40.5t36.5 18q21 0 32 -37q38 -55 70.5 -103.5t32.5 -76.5z" />
    <glyph glyph-name="k" unicode="k" horiz-adv-x="1741" 
d="M545 590l-62 -504q-6 -56 -34.5 -77t-92.5 -21q-106 0 -106 78q0 16 4 20l299 2445q8 58 8 86q0 95 -106 95h-115q-66 0 -66 32v4q6 41 142 54.5t268 27.5q17 2 44.5 7.5t49.5 5.5q37 0 37 -70l-233 -1880v-25q-4 -8 -4 -24q0 -25 16 -25q11 0 49 25q134 105 244 191.5
t195.5 184t134.5 226.5q66 192 172 192q51 0 84.5 -36t33.5 -86q0 -83 -53.5 -161t-123 -136.5t-182 -138t-157.5 -117.5q-20 -12 -20 -17q0 -33 17 -62t54.5 -73.5t47.5 -60.5l221 -398q30 -49 46 -67.5t48 -18.5q108 0 201 168q36 74 65 74h4q33 0 33 -49
q-6 -75 -60.5 -189.5t-133 -198t-154.5 -83.5q-93 0 -168 131l-356 631q-37 57 -58 57q-77 0 -150.5 -71t-82.5 -146z" />
    <glyph glyph-name="l" unicode="l" horiz-adv-x="1020" 
d="M307 496l250 2035q8 58 12 82q0 99 -110 99h-119q-66 0 -66 32v4q4 28 71 40.5t186.5 21.5t156.5 16q54 13 94 13q37 0 37 -46v-24l-287 -2318q-4 -33 -4 -95q0 -113 58 -123q161 0 291 246q29 41 49 41q37 0 37 -45q-9 -88 -92.5 -204t-196 -199.5t-203.5 -83.5
q-176 0 -176 323q0 92 12 185z" />
    <glyph glyph-name="m" unicode="m" horiz-adv-x="2818" 
d="M676 1217q295 409 635 409q129 0 193.5 -97t64.5 -235q0 -53 -4 -77q114 165 265 287t312 122q160 0 236 -134t76 -308q0 -36 -9 -140l-49 -643q-4 -20 -4 -65q0 -103 78 -103q83 0 188 156q25 33 45 33h9q32 0 32 -37v-4q0 -72 -72.5 -165t-174 -160.5t-179.5 -67.5
q-159 0 -159 278q0 90 4 135l45 643q4 54 4 164q-7 94 -57.5 167t-135.5 79q-199 0 -303.5 -239t-138.5 -515l-74 -614q-6 -56 -34.5 -77t-92.5 -21q-106 0 -106 65v33l110 889q9 61 9 184q0 114 -53.5 201t-159.5 98q-147 0 -248 -111t-154.5 -268t-73.5 -313l-82 -680
q-9 -57 -37 -77.5t-94 -20.5q-102 0 -102 98l119 958q8 66 8 103q0 184 -78 201q-66 0 -89.5 -34t-57.5 -113t-66 -79h-4q-29 10 -29 70q5 70 54 173.5t122 180t144 76.5q109 0 138.5 -102t29.5 -250v-53z" />
    <glyph glyph-name="n" unicode="n" horiz-adv-x="1991" 
d="M700 1229q127 165 291.5 281t339.5 116q157 0 224 -150t67 -329q0 -43 -5 -129t-7 -129l-41 -520q-4 -17 -4 -50q0 -90 61 -90q90 0 189 131q37 58 65 62h8q33 0 33 -37q0 -74 -76 -168.5t-182 -163.5t-184 -69q-148 0 -148 262q0 56 8 164l50 614q4 25 4 78
q0 323 -185 352q-235 0 -348 -234t-147 -528l-74 -606q-6 -58 -34 -78t-93 -20q-106 0 -106 61v37l65 516q16 130 28.5 226.5t20.5 184.5t8 175q0 144 -73 160q-68 0 -91 -34t-58 -115t-68 -81q-37 0 -45 45q0 76 53 186.5t133 189.5t158 79q82 0 122.5 -87t40.5 -183v-119z
" />
    <glyph glyph-name="o" unicode="o" horiz-adv-x="1602" 
d="M1528 1040q0 -489 -234 -778q-102 -129 -252.5 -210t-304.5 -81q-282 0 -436 194t-154 482q0 236 96.5 465.5t279.5 377.5t423 148q164 0 297.5 -79t209 -215.5t75.5 -303.5zM1262 1077q0 168 -74 315.5t-225 147.5q-192 0 -315.5 -145.5t-176.5 -354.5t-53 -409
q0 -213 77 -381t263 -168q270 0 387 332.5t117 662.5z" />
    <glyph glyph-name="p" unicode="p" horiz-adv-x="1774" 
d="M737 1597q192 33 295 33q174 0 328.5 -61t251 -184.5t96.5 -299.5q0 -194 -74 -386t-210.5 -348t-315.5 -247.5t-379 -91.5q-23 0 -65 6.5t-70 6.5q-38 0 -46 -20.5t-16 -74.5q-40 -308 -40 -368q0 -96 62 -120.5t196 -39.5q57 -9 57 -41q0 -57 -62 -57q-54 0 -163 10
t-164 10q-123 0 -185 -8q-15 -2 -45 -5t-45 -7q-80 0 -90 49q0 45 53 53q102 23 123 67.5t37 178.5l221 1790q-14 -4 -113.5 -45t-140.5 -41q-10 0 -16 12q0 45 12 57q13 32 271 115q8 87 18 188.5t36 190t83 148t154 59.5q45 0 45 -37q0 -9 -42 -210t-57 -282zM725 1491
l-147 -1200q-5 -25 -5 -74q0 -102 172 -102q213 0 370 139t238 350.5t81 415.5q0 223 -130 349t-354 138q-77 0 -225 -16z" />
    <glyph glyph-name="q" unicode="q" horiz-adv-x="1839" 
d="M1249 496q-339 -500 -733 -500q-185 0 -289 127.5t-104 314.5q0 250 147 536t386 477t499 191q44 0 79 -8.5t90.5 -27t84.5 -25.5q27 0 38 12.5t40 53.5l86 172q26 61 61 61h4q33 -6 33 -37q0 -1 -12 -61q-26 -66 -39 -142t-22 -177.5t-17 -155.5l-209 -1700
q-4 -25 -4 -74q0 -90 39 -107t158 -32q69 0 69 -53q-12 -37 -49 -37q-58 0 -172 10t-172 10t-174 -10t-174 -10q-35 0 -41 28q0 30 84 68t139 83t68 148zM1315 1012q3 32 12.5 105t15 129t5.5 114q-3 75 -74 122t-156 58q-211 0 -376 -153t-258 -381t-99 -433
q0 -153 59 -268t199 -125q197 0 340 126t224 316t108 390z" />
    <glyph glyph-name="r" unicode="r" horiz-adv-x="1286" 
d="M750 1217q226 409 467 409q49 0 94 -24.5t45 -69.5q0 -41 -31 -157.5t-76 -125.5h-4q-21 0 -54 51.5t-54.5 76t-67.5 28.5q-73 0 -127 -97.5t-86.5 -236t-51.5 -283.5t-30 -235l-57 -467q-6 -56 -34.5 -77t-92.5 -21q-63 0 -85 16.5t-22 81.5l99 782q8 108 8 160
q0 274 -123 295q-95 0 -125.5 -55.5t-53.5 -151.5t-55 -96h-4q-45 8 -45 106q0 88 43.5 204.5t120 200t168.5 83.5q97 0 145 -113t89 -284z" />
    <glyph glyph-name="s" unicode="s" horiz-adv-x="1298" 
d="M688 1106l283 -303q135 -148 135 -348q0 -138 -79 -249.5t-206.5 -173t-263.5 -61.5q-141 0 -281.5 60.5t-140.5 181.5q0 52 31.5 89.5t83.5 37.5q70 0 115 -66.5t91 -133t117 -66.5q118 0 213 67.5t95 182.5q0 125 -68 220.5t-201.5 223t-200.5 226.5t-67 231
q0 192 132.5 302.5t326.5 110.5q356 0 356 -184q0 -53 -37 -90t-90 -37q-42 0 -71.5 25.5t-71 80t-79 83t-93.5 28.5q-73 0 -122.5 -52.5t-49.5 -127.5q0 -107 143 -258z" />
    <glyph glyph-name="t" unicode="t" horiz-adv-x="1065" 
d="M627 1372l-99 -807q-8 -82 -8 -119q0 -80 42.5 -152.5t117.5 -72.5q70 0 130 38t124.5 94.5t81.5 56.5q33 0 33 -33q0 -85 -91.5 -176.5t-215.5 -154t-210 -62.5q-127 0 -188 121.5t-61 263.5q0 66 16 196l90 766q2 15 9.5 46t7.5 48q0 50 -70 50h-111q-45 0 -45 32
q0 42 82 82q216 117 348 324q38 53 66 53q39 0 45 -29q0 -48 -28.5 -130.5t-28.5 -127.5q-5 -8 -5 -24q0 -53 99 -53l270 8q70 0 70 -58q0 -77 -90 -77q-44 0 -137 4t-138 4q-55 0 -76 -21.5t-30 -89.5z" />
    <glyph glyph-name="u" unicode="u" horiz-adv-x="1995" 
d="M1339 819q-526 -819 -847 -819q-148 0 -148 258q0 130 49 389l82 414q29 167 29 221q0 74 -45 74h-4q-56 0 -81 -38t-72.5 -129t-76.5 -91q-41 0 -41 41q0 106 54.5 220.5t148 192.5t199.5 78q86 0 125 -78.5t39 -175.5q0 -62 -13 -135l-110 -688q-33 -136 -33 -229
q0 -99 53 -99q173 0 520 525q226 344 332 745q34 115 107 115q109 0 114 -66q0 -45 -4 -65l-102 -463q-98 -490 -98 -664q0 -91 61 -106q143 0 258 221q29 49 57 49h4q33 -6 33 -49q0 -101 -86.5 -213t-212 -189t-225.5 -77q-135 0 -135 221q0 123 31.5 334t37.5 276z" />
    <glyph glyph-name="v" unicode="v" horiz-adv-x="1602" 
d="M791 1217l-66 -541q-8 -66 -8 -94q0 -357 160 -365q171 0 302 176.5t201 415t70 403.5q0 62 -35 155t-35 132q0 46 34.5 78.5t80.5 32.5q115 0 115 -172q0 -238 -67.5 -483.5t-199 -459.5t-311.5 -364q-194 -160 -299 -160q-229 0 -229 529q0 39 -45 58.5t-118 53
t-117 111t-44 231.5q0 122 59.5 282t162.5 273t229 113q168 0 168 -299q0 -34 -8 -106zM274 938q0 -97 34.5 -177.5t117.5 -80.5q30 0 49 25t27.5 61.5t12 73t5.5 61.5q3 33 20 150.5t17 189.5q0 84 -41 94q-50 0 -105 -73t-93.5 -170.5t-43.5 -153.5z" />
    <glyph glyph-name="w" unicode="w" horiz-adv-x="2482" 
d="M1376 688q-163 -315 -314.5 -516t-356.5 -201q-209 17 -209 533q-5 46 -9.5 62t-31.5 16h-4q-136 0 -207.5 118.5t-71.5 262.5q0 110 59.5 269.5t159.5 274.5t215 115q168 0 168 -377q0 -96 -15 -225t-30.5 -258t-15.5 -225q18 -311 127 -324q180 0 393 410
q92 190 142.5 398t94.5 486q11 99 70 99h33q110 0 110 -66q0 -25 -20 -160q-66 -415 -66 -782q0 -131 36.5 -268t127.5 -137q129 0 256.5 173t215.5 405.5t98 371.5q0 73 -35 189t-35 171q6 45 47 78t88 33q86 0 86 -144q0 -400 -180 -798q-60 -132 -171.5 -292t-249 -279.5
t-259.5 -129.5q-154 0 -196.5 217.5t-49.5 499.5zM287 930q0 -86 30.5 -158t104.5 -72q64 0 78 60.5t20 169.5q17 200 17 287q0 93 -45 98q-81 0 -143 -142.5t-62 -242.5z" />
    <glyph glyph-name="x" unicode="x" horiz-adv-x="1569" 
d="M893 934q16 -40 69 -212t106 -299t127.5 -217.5t168.5 -90.5q7 0 82 12q65 0 65 -41v-4q-8 -50 -97 -70t-169 -20q-222 0 -295 86q-43 53 -74 118.5t-52 133.5t-46 170t-41 155q-67 -134 -121.5 -241.5t-123 -207.5t-164.5 -167.5t-213 -67.5q-53 0 -92 36.5t-39 90.5
q0 51 37.5 91t89.5 40q26 0 73 -16t74 -16q70 0 154.5 110t162 256t117.5 223l-131 336q-35 108 -61.5 164t-85.5 66q-83 0 -105.5 -38.5t-44.5 -117t-59 -78.5h-4q-37 0 -37 78q12 144 84 285t194 141q97 0 174.5 -96.5t123 -204.5t100.5 -264q36 69 94.5 176t122 192
t142.5 141t169 56q56 0 94 -35t41 -88q0 -48 -24 -86t-70 -41q-26 0 -75 12.5t-81 12.5q-81 0 -147 -77t-120.5 -190.5t-92.5 -195.5z" />
    <glyph glyph-name="y" unicode="y" horiz-adv-x="1442" 
d="M1114 512q123 397 123 655q0 56 -11 99t-26.5 81t-32 84t-16.5 80q0 43 30 79t72 36q83 0 115.5 -78.5t32.5 -175.5q0 -75 -49 -364q-68 -347 -184 -723t-317.5 -678.5t-469.5 -302.5q-90 0 -170 55.5t-80 140.5q0 48 25 83.5t69 35.5q37 0 70 -14.5t79.5 -43.5t73 -41
t60.5 -12q101 0 206.5 110t178 259t78.5 246q0 116 -106.5 420t-250 548t-254.5 244q-83 0 -113 -51t-54 -137t-54 -86q-37 0 -37 86q0 155 69 303.5t202 159.5q125 0 241.5 -122t205.5 -291t170.5 -373.5t123.5 -311.5z" />
    <glyph glyph-name="z" unicode="z" horiz-adv-x="1597" 
d="M528 377q161 -104 258.5 -204t192.5 -263q24 -41 50.5 -85t59.5 -74t74 -30t64 26t42 75t39 74.5t60 25.5h8q78 -13 78 -94q0 -88 -121 -150.5t-223 -62.5q-103 0 -191.5 69.5t-198 203.5t-179 199t-152.5 65q-36 0 -58.5 -19.5t-46.5 -58.5t-44 -60.5t-52 -25.5
q-65 0 -65 49v4q0 29 32 71t84.5 97t67.5 74l713 864q-109 19 -180.5 52.5t-225.5 113.5t-192 80q-47 0 -77.5 -37.5t-37.5 -85.5q0 -59 45 -117t45 -76q0 -12 -10.5 -24.5t-26.5 -12.5q-64 0 -109.5 98.5t-45.5 176.5q0 111 82.5 209t191.5 98q82 0 160 -30t190 -90.5
t184.5 -89t153.5 -28.5q74 0 99 86q15 69 32 104.5t62 35.5q31 0 50.5 -23t19.5 -55q0 -44 -22 -75.5t-77 -96.5z" />
    <glyph glyph-name="braceleft" unicode="{" 
d="M516 1290l8 58q153 9 243 40t135 90t64 148t33 250q15 158 32.5 325t49.5 302q40 184 116 284t195.5 138t311.5 41q39 0 117 2t116 2l-12 -86q-188 -5 -310.5 -40t-201.5 -131.5t-106 -279.5l-25 -209q-15 -158 -29 -301t-47.5 -263.5t-113 -210.5t-220.5 -122v-12
q113 -24 181.5 -107.5t68.5 -199.5q0 -141 -25.5 -320.5l-51 -359t-25.5 -320.5q0 -148 59.5 -228t170 -109t282.5 -31l-12 -86h-58q-272 7 -388 22.5t-210 108t-94 303.5q0 140 31 326t61.5 372t30.5 326q0 158 -92 214.5t-285 63.5z" />
    <glyph glyph-name="bar" unicode="|" 
d="M1020 2728h201v-3412h-201v3412z" />
    <glyph glyph-name="braceright" unicode="}" 
d="M1716 1348l-4 -58q-210 -7 -323 -77.5t-140 -266.5q-14 -166 -57 -569q-28 -303 -72.5 -461.5t-180 -255t-415.5 -102.5q-41 0 -120 -2t-121 -2l12 86q271 4 397.5 76.5t170 208.5t79.5 431q18 163 47 389.5t112 380t259 189.5v12q-250 64 -250 336q0 120 45 406.5
t45 441.5q0 222 -123.5 294t-388.5 79l12 86q39 0 117 -2t117 -2q174 0 276.5 -22.5t167 -117.5t64.5 -299q0 -134 -25.5 -294t-51.5 -320.5t-26 -294.5q0 -152 95.5 -205.5t281.5 -64.5z" />
    <glyph glyph-name="asciitilde" unicode="~" 
d="M1970 1630l62 -33q-104 -162 -260.5 -273.5t-329.5 -111.5q-84 0 -163.5 20t-208 63t-223 66t-183.5 23q-67 0 -120.5 -19.5t-97 -51.5t-94 -83t-86.5 -87l-61 37q282 389 590 389q108 0 239.5 -41t262.5 -82t239 -41q246 0 434 225z" />
    <glyph glyph-name="nonbreakingspace" unicode="&#xa0;" horiz-adv-x="1036" 
 />
    <glyph glyph-name="exclamdown" unicode="&#xa1;" horiz-adv-x="938" 
d="M606 1077l-78 -1609q-3 -73 -43 -118.5t-112 -45.5q-135 0 -135 94q0 49 4 74l278 1609q9 62 45 62h4q37 0 37 -66zM389 1712q6 28 82 88t119 117q28 37 53 37q24 0 49 -41q33 -56 57 -84t48 -47t31.5 -28t7.5 -30q0 -35 -45 -65q-3 -2 -81 -81t-108 -79
q-26 0 -46.5 16.5t-36 39.5t-32.5 47q-11 11 -37 32t-43.5 41t-17.5 37z" />
    <glyph glyph-name="cent" unicode="&#xa2;" horiz-adv-x="2077" 
d="M1319 2200l-160 -1356q260 0 422 139q64 74 102 78q25 0 25 -17q0 -46 -68 -118.5t-129 -118.5q-152 -113 -376 -148l-45 -376q-8 -58 -62 -58q-57 0 -57 49q0 55 45 381q-252 10 -374 185.5t-122 441.5q0 212 85.5 425.5t242.5 372.5t360 214l33 274q5 39 49 45
q70 0 70 -65q0 -50 -13.5 -132.5t-15.5 -101.5q145 0 289.5 -56t144.5 -173q0 -52 -30.5 -90.5t-79.5 -44.5q-40 0 -79.5 27.5t-88 79.5t-90.5 91t-78 52zM1200 2204q-166 -31 -264.5 -162t-138 -304t-39.5 -349q0 -170 71 -315t211 -202z" />
    <glyph glyph-name="sterling" unicode="&#xa3;" horiz-adv-x="2077" 
d="M995 1470h496l-16 -127h-459q24 -154 24 -233q0 -204 -77 -374.5t-207 -309.5t-310 -279q338 103 500 103q95 0 201.5 -59.5t212.5 -119t201 -59.5q87 0 152.5 35.5t162.5 112.5q24 16 45 16q33 0 33 -24q0 -73 -104.5 -157t-245 -144t-220.5 -60q-82 0 -155.5 27
t-211.5 92t-242.5 98t-225.5 33q-102 0 -156 -12t-127 -41t-119 -41q-45 0 -57 24q0 37 84 105t239 200.5t246 277t91 314.5q0 107 -23 208t-68 267h-438l17 127h397q-25 134 -25 279q0 258 127.5 495.5t349 383t482.5 145.5q140 0 279 -51.5t231 -153.5t92 -246
q0 -86 -62 -147t-147 -61q-68 0 -117 39t-55 104q0 32 6 96t6 96q0 109 -92 157t-223 48q-173 0 -303 -89.5t-200.5 -238t-70.5 -315.5q0 -82 12 -171t36.5 -208t33.5 -162z" />
    <glyph glyph-name="currency" unicode="&#xa4;" horiz-adv-x="2732" 
d="M373 422l368 373q-221 299 -221 610q0 265 213 606l-373 369l111 110l373 -368q288 221 614 221q294 0 610 -225l381 376l111 -110l-381 -381q209 -318 209 -610q0 -281 -213 -586l381 -385l-111 -111l-377 381q-310 -221 -610 -221q-283 0 -602 213l-373 -373z
M2179 1401q0 193 -97.5 361.5t-263 268t-360.5 99.5q-192 0 -358.5 -99t-264.5 -267.5t-98 -362.5q0 -190 98.5 -355.5t265 -263.5t357.5 -98t357.5 98t265 263.5t98.5 355.5z" />
    <glyph glyph-name="yen" unicode="&#xa5;" horiz-adv-x="2077" 
d="M1081 1180h-503q-95 0 -95 57q0 70 111 70h455l-205 422h-398q-94 0 -94 53q0 73 111 73h323l-241 504q-78 151 -142 223.5t-186 75.5q-86 12 -86 45q0 41 62 41t187 -10t189 -10q63 0 192 10t193 10q66 0 66 -37v-4q0 -36 -74 -45q-47 -3 -85 -34.5t-38 -79.5
q0 -86 66 -226l213 -463h520l45 70q85 131 156.5 241.5t123.5 209t52 147.5q0 76 -36.5 89t-133 29t-100.5 58q0 45 69 45q54 0 158 -10t158 -10q53 0 162 10t161 10q44 0 49 -32q0 -38 -69 -58q-104 -24 -215 -158t-254.5 -369.5t-169.5 -271.5h295q94 0 94 -53
q0 -73 -111 -73h-360q-63 -96 -158.5 -230.5t-132.5 -191.5h500q94 0 94 -54q0 -73 -111 -73h-524q-3 -15 -9.5 -52.5t-11.5 -58.5l-77 -651q-9 -83 -9 -119q0 -175 189 -213q110 -15 110 -57v-4q0 -37 -61 -37q-58 0 -172 10t-172 10q-60 0 -179 -10t-177 -10q-70 0 -70 41
v4q4 31 32 37t82.5 21.5t91.5 77t52 200.5l90 745q8 42 8 66zM1159 1729q3 -6 35.5 -90.5t62 -142.5t50.5 -71h4q13 0 41 37q23 30 94 133t94 134h-381z" />
    <glyph glyph-name="brokenbar" unicode="&#xa6;" 
d="M1020 2728h201v-1360h-201v1360zM1020 627h201v-1311h-201v1311z" />
    <glyph glyph-name="section" unicode="&#xa7;" horiz-adv-x="2056" 
d="M614 1872q-91 134 -106 250q0 217 113 364.5t297 217t401 69.5q305 0 496 -139q159 -115 167 -172q0 -48 -24 -78q-24 -50 -33 -78q-10 -21 -25 -53.5t-32.5 -57t-40.5 -24.5q-12 0 -17 4q-21 9 -42 101t-58.5 173t-138.5 143t-289 62q-182 0 -345 -100.5t-163 -272.5
q0 -145 123.5 -219t443.5 -211t480.5 -280t160.5 -387q0 -325 -307 -676q103 -153 103 -279q0 -197 -144.5 -356.5t-359.5 -247.5t-406 -88q-383 0 -655 217q-61 47 -86 77.5t-25 82.5q0 78 35 192.5t92 114.5q34 0 50 -90q37 -208 200 -331.5t377 -123.5q144 0 294.5 53
t251.5 159t101 255q0 132 -115.5 196.5t-449.5 209.5t-496.5 293.5t-162.5 390.5q0 340 335 639zM700 1782q-184 -172 -184 -385q0 -152 104 -254t294 -188t381 -171t307 -182q167 206 167 406q0 174 -153 282t-471.5 250.5t-444.5 241.5z" />
    <glyph glyph-name="dieresis" unicode="&#xa8;" 
d="M1044 2085q0 -17 -28 -45q-8 -8 -39.5 -48.5t-62 -72t-50.5 -31.5h-4q-33 9 -58.5 61.5t-51.5 106.5q-21 19 -21 41q0 18 10 34.5t28.5 34.5t35.5 34q7 7 29 37t39.5 47.5t33.5 17.5q14 -3 37 -37q53 -107 77.5 -133t24.5 -47zM1696 2085q0 -16 -29 -45q-8 -7 -65 -79.5
t-86 -72.5h-5q-17 3 -74 90.5t-57 118.5q0 24 27 52.5t51 50.5q16 21 31.5 43.5t35 40.5t36.5 18q16 -8 75.5 -91.5t59.5 -125.5z" />
    <glyph glyph-name="copyright" unicode="&#xa9;" horiz-adv-x="3293" 
d="M2347 2146v-471h-66q-42 167 -169.5 270t-301.5 103q-265 0 -404.5 -197t-139.5 -479q0 -187 57.5 -340.5t182.5 -244.5t317 -91q322 0 557 348v-143q-110 -144 -264.5 -223.5t-329.5 -79.5q-216 0 -394 92.5t-279 262.5t-101 390q0 223 98 405t274 286t398 104
q94 0 232 -51t186 -51q25 0 39.5 16.5t24.5 47t17 42.5zM1745 -53q-288 0 -546 109.5t-457 308.5t-308.5 457t-109.5 546q0 381 191 707.5t518 518t712 191.5q381 0 707.5 -190.5t518 -516.5t191.5 -710q0 -385 -191.5 -712t-518 -518t-707.5 -191zM1745 70
q351 0 648.5 175.5t471.5 474.5t174 648q0 265 -99.5 500t-279.5 415t-415 279.5t-500 99.5q-349 0 -648.5 -174t-475 -473t-175.5 -647t175 -647.5t474.5 -475t649.5 -175.5z" />
    <glyph glyph-name="ordfeminine" unicode="&#xaa;" horiz-adv-x="1294" 
d="M1348 1806l41 -24q-111 -168 -238 -168q-143 0 -143 213q-140 -103 -252 -158t-236 -55q-87 0 -156 56.5t-69 139.5q0 140 131.5 239.5t286 150.5t352.5 98l20 180q0 100 -55.5 154.5t-157.5 54.5q-86 0 -184 -32t-98 -99q0 -15 10 -41t10 -41q0 -56 -27 -95.5t-83 -39.5
q-38 0 -62 31t-24 71q0 143 158.5 227.5t312.5 84.5q151 0 255.5 -58t104.5 -196q0 -13 -2 -38t-2 -36l-70 -553q-8 -50 -8 -82q0 -98 58 -98q20 0 41 12.5t29 22.5t26.5 36t30.5 43zM1057 2232q-590 -144 -590 -381q0 -63 44 -103t112 -40q164 0 393 201zM1368 1356
l-16 -111h-1143l12 111h1147z" />
    <glyph glyph-name="guillemotleft" unicode="&#xab;" horiz-adv-x="1327" 
d="M627 803q7 54 123 160q166 153 405 454q41 49 74 49q18 0 33.5 -13t15.5 -32q0 -45 -35 -99t-125 -172t-137.5 -199.5t-50.5 -147.5q0 -90 49 -197.5l98 -215t49 -197.5q0 -46 -49 -54q-43 0 -74.5 37.5t-60 106t-37.5 86.5q-20 35 -103.5 146t-129 179t-45.5 109z
M147 803q8 59 119 160q211 196 357 393q19 25 39.5 50.5t42.5 42.5t45 17q45 0 45 -41q0 -50 -41.5 -117.5t-125.5 -179t-126.5 -184t-50.5 -141.5q0 -74 22.5 -136t72.5 -163.5t75.5 -171t25.5 -144.5q0 -40 -53 -49q-40 0 -72 39.5t-64 111.5t-36 79q-19 34 -101 144
t-128 181t-46 109z" />
    <glyph glyph-name="logicalnot" unicode="&#xac;" 
d="M1638 0v938h-1396v156h1753v-1094h-357z" />
    <glyph glyph-name="registered" unicode="&#xae;" horiz-adv-x="3293" 
d="M2236 623l-405 708h-320v-483q0 -83 27.5 -119.5t108.5 -36.5h69v-69h-618v69q112 0 154 28t42 128v1036q0 84 -27 120t-108 36h-74v74h639q253 0 430 -88.5t177 -321.5q0 -254 -283 -365l311 -540q65 -107 189 -107v-69h-312zM1511 1401h254q340 0 340 303
q0 156 -96 240t-252 84h-246v-627zM1745 -53q-288 0 -546 109.5t-457 308.5t-308.5 457t-109.5 546q0 381 191 707.5t518 518t712 191.5q381 0 707.5 -190.5t518 -516.5t191.5 -710q0 -385 -191.5 -712t-518 -518t-707.5 -191zM1745 70q351 0 648.5 175.5t471.5 474.5
t174 648q0 265 -99.5 500t-279.5 415t-415 279.5t-500 99.5q-349 0 -648.5 -174t-475 -473t-175.5 -647t175 -647.5t474.5 -475t649.5 -175.5z" />
    <glyph glyph-name="macron" unicode="&#xaf;" 
d="M1700 2138q-11 -46 -44.5 -84.5t-74.5 -38.5q-37 0 -110 4t-111 4q-88 0 -266 -2t-267 -2q-65 0 -65 33q0 12 4 16q11 28 25.5 63.5t36.5 56t57 20.5q77 0 191.5 -6.5t176.5 -6.5q59 0 161.5 2.5t191.5 2.5q98 0 98 -41q0 -3 -2 -10t-2 -11z" />
    <glyph glyph-name="degree" unicode="&#xb0;" horiz-adv-x="1798" 
d="M991 2638q106 0 202 -54t154 -147t58 -201q0 -163 -121 -282t-285 -119q-170 0 -293.5 119.5t-123.5 286.5q0 173 117.5 285t291.5 112zM668 2183q23 -117 119 -193.5t212 -76.5q133 0 228.5 98t95.5 230q0 87 -47 161t-124.5 116t-164.5 42q-134 0 -231 -89t-97 -222
q0 -19 9 -66z" />
    <glyph glyph-name="plusminus" unicode="&#xb1;" 
d="M193 1524h839v786h168v-786h844v-160h-844v-778h-168v778h-839v160zM193 401h1851v-159h-1851v159z" />
    <glyph glyph-name="twosuperior" unicode="&#xb2;" horiz-adv-x="1376" 
d="M897 1679l-279 -344q-6 -7 -13 -15.5t-11 -15t-4 -14.5q0 -24 65 -24h197q118 0 190 20t138 86q47 41 82 41q41 -8 41 -45v-4q-10 -34 -108 -166.5t-138 -132.5q-46 0 -143 8t-144 8q-73 0 -219 -8t-219 -8q-17 0 -33 12.5t-16 28.5q0 37 97 148.5t268.5 313.5t273.5 394
t102 373q0 85 -50 138.5t-138 53.5q-94 0 -147 -28t-114 -75.5t-96 -47.5q-49 0 -49 37v4q10 71 97 136t202 103.5t189 38.5q136 0 242 -81t106 -210q0 -125 -55 -250.5t-131 -233t-183 -241.5z" />
    <glyph glyph-name="threesuperior" unicode="&#xb3;" horiz-adv-x="1376" 
d="M954 2048q150 -29 226.5 -99t76.5 -216q0 -176 -93.5 -332.5t-250 -250t-331.5 -93.5q-84 0 -208 40t-124 107q0 58 61 58q12 0 51.5 -23.5t87 -39t119.5 -15.5q122 0 224.5 67t162.5 176.5t60 227.5q0 250 -275 250q-11 0 -38 -2t-39 -2h-5q-29 0 -36 28q0 33 118.5 111
t188 145.5t69.5 173.5q0 74 -45.5 119.5t-117.5 48.5q-76 0 -110 -18.5t-91.5 -63t-110.5 -57.5q-51 0 -57 37q0 106 172 188t266 82q122 0 214 -59.5t98 -173.5q0 -125 -69 -221t-194 -193z" />
    <glyph glyph-name="acute" unicode="&#xb4;" 
d="M1069 1991l254 262q98 98 164 98q64 0 109.5 -52t45.5 -116q0 -112 -143 -160q-69 -28 -160.5 -65.5t-164.5 -63.5t-109 -26q-49 0 -49 37v4q4 30 53 82z" />
    <glyph glyph-name="mu" unicode="&#xb5;" horiz-adv-x="2245" 
d="M1966 1876v-1401v-33q0 -120 28.5 -199t123.5 -79q51 0 131 49v-66q-27 -15 -108.5 -68.5t-140.5 -86.5t-87 -33q-156 0 -197 348q-130 -123 -214 -193t-191.5 -120.5t-229.5 -50.5q-348 0 -458 364q0 -172 28.5 -479t32.5 -360q0 -238 -135 -238q-70 0 -109 58t-39 134
q0 47 10.5 121t14.5 113q115 731 115 1503v717h266v-1176q0 -254 78.5 -413.5t306.5 -159.5q281 0 508 336v1413h266z" />
    <glyph glyph-name="paragraph" unicode="&#xb6;" horiz-adv-x="2241" 
d="M2404 2732l-12 -94h-82q-130 0 -186 -27t-72.5 -82t-36.5 -207l-282 -2334q-17 -102 -17 -164q0 -78 56 -98.5t153 -20.5h90l-12 -90h-479l368 3019h-393l-369 -3019h-512l13 90q151 0 220 14.5t108.5 76t56.5 196.5l176 1450q-247 0 -415.5 37.5t-276 161t-107.5 362.5
q0 248 115.5 410t310 238t434.5 81h201h950zM1339 2638h-151q-282 0 -423.5 -182.5t-141.5 -477.5q0 -190 75.5 -283t194.5 -118t311 -25z" />
    <glyph glyph-name="cedilla" unicode="&#xb8;" 
d="M1217 0l-70 -270q108 -16 187 -81t79 -165q0 -110 -86.5 -174t-200.5 -64q-81 0 -204 65.5t-131 143.5q0 29 24 29q20 0 106 -52t140 -55q57 0 100 39t43 97q0 87 -155 147l90 340h78z" />
    <glyph glyph-name="onesuperior" unicode="&#xb9;" horiz-adv-x="1376" 
d="M1008 2347l-123 -979q0 -15 -2 -40t-2 -38q0 -116 131 -123q90 0 90 -53q0 -49 -62 -49q-45 0 -133 6t-133 6q-115 0 -172 -4q-25 0 -65 -8q-86 0 -86 49q5 53 77 53q99 7 121.5 50.5t38.5 166.5l111 910l8 78q0 65 -33 73q-27 0 -76 -16t-75 -16q-37 6 -37 45
q0 25 28.5 45.5t57 31.5t78.5 29q140 60 208 119q5 2 27.5 17.5t38.5 15.5q12 0 16 -4q21 -6 21 -41q0 -63 -24 -171t-29 -153z" />
    <glyph glyph-name="ordmasculine" unicode="&#xba;" horiz-adv-x="1298" 
d="M918 2753q217 0 335.5 -138t118.5 -350q0 -166 -76 -318.5t-212 -244.5t-306 -92q-146 0 -251 64t-158.5 176t-53.5 247q0 166 79 318t217.5 245t306.5 93zM909 2683q-233 0 -327.5 -205t-94.5 -467q0 -141 80 -236.5t219 -95.5q227 0 322.5 200.5t95.5 455.5
q0 155 -74.5 251.5t-220.5 96.5zM1319 1356l-16 -111h-1143l12 111h1147z" />
    <glyph glyph-name="guillemotright" unicode="&#xbb;" horiz-adv-x="1327" 
d="M774 803q-7 -51 -191 -236t-194 -198q-30 -44 -66 -97.5t-73.5 -91t-73.5 -37.5q-53 0 -53 41q0 43 36.5 99t124.5 174.5t135 199.5t52 146q0 76 -24.5 143t-76 171.5t-74 165t-22.5 134.5q0 39 50 49q30 0 48 -15.5t32.5 -41.5t29.5 -53l62 -115q22 -40 108.5 -157
t128 -179.5t41.5 -101.5zM1253 803q-5 -38 -64.5 -103.5t-172 -177t-144.5 -153.5q-28 -38 -66.5 -91.5t-79 -94t-71.5 -40.5q-49 0 -49 37q0 46 39.5 108t125.5 178t130.5 192t52.5 145q0 76 -25 143t-75.5 167.5t-75 167t-24.5 136.5q0 41 53 49q33 0 63.5 -37t58 -89.5
t50.5 -98.5q14 -27 144 -204.5t130 -233.5z" />
    <glyph glyph-name="onequarter" unicode="&#xbc;" horiz-adv-x="3322" 
d="M1008 2347l-123 -983q0 -12 -2 -37t-2 -41q0 -112 131 -119q90 0 90 -53q0 -49 -62 -49q-45 0 -133 6t-133 6q-39 0 -119 -6t-118 -6q-86 0 -86 49q4 44 77 53q99 7 121.5 50.5t38.5 166.5l111 910l8 78q0 73 -53 73q-23 0 -66 -16t-65 -16q-37 6 -37 45q0 25 28.5 45.5
t57 31.5t78.5 29q140 60 208 119q45 29 82 29q21 -11 21 -41q0 -63 -24 -171t-29 -153zM2728 2605l-1753 -2535q-65 -99 -131 -99q-78 0 -78 49q7 16 20 29l1774 2581q55 73 127 73q61 0 70 -28q0 -19 -13 -41.5t-16 -28.5zM2736 492h-561q-82 0 -82 53v4q5 49 73.5 132
t160.5 187q90 114 194 233.5t240.5 270t208.5 230.5q36 36 69 36q40 0 45 -28v-37q-32 -148 -41 -225l-82 -684q58 0 78.5 12t62.5 45t76 33q41 0 41 -37q0 -12 -4 -21l-65 -159q-12 -45 -62 -45h-151l-66 -553q-5 -51 -58 -73t-114 -22q-57 0 -57 54q0 20 4 28
q38 145 90 566zM2757 664l73 606q-190 -182 -508 -606h435z" />
    <glyph glyph-name="onehalf" unicode="&#xbd;" horiz-adv-x="3322" 
d="M1004 2343l-123 -979q0 -13 -2 -39t-2 -39q0 -119 131 -119q90 -10 90 -53q0 -53 -62 -53q-45 0 -133 6t-133 6q-39 0 -119 -4t-119 -4q-8 -4 -24 -4q-62 0 -62 49q6 48 78 57q99 7 121.5 49.5t38.5 167.5l111 906l8 82q0 65 -33 69q-25 0 -72 -14t-71 -14q-45 0 -45 45
q0 19 17.5 34.5t46.5 30.5t55.5 25t43.5 16q134 50 209 115q43 33 66 33q12 0 16 -5q21 -5 21 -41q0 -60 -25 -168.5t-28 -154.5zM2724 2605l-1753 -2539q-68 -95 -131 -95q-78 0 -78 37q0 11 20 41l1774 2577q58 77 127 77q61 0 70 -28q0 -19 -13 -41.5t-16 -28.5z
M2712 606l-283 -348q0 -1 -12.5 -17.5t-12.5 -23.5q0 -24 66 -24q48 0 106 -2.5t90 -2.5q116 0 187.5 20.5t140.5 86.5q43 41 74 41q49 0 49 -41v-4q-2 -9 -29 -45q-14 -21 -57.5 -86.5t-88 -116.5t-71.5 -51q-58 0 -179 8t-181 8q-62 -2 -99 -4t-89.5 -5.5t-98.5 -5
t-78 -1.5q-16 0 -32.5 11.5t-16.5 29.5q0 30 155.5 208.5t266.5 315.5t213 330.5t102 369.5q0 89 -48 143t-136 54q-92 0 -145 -28t-115.5 -78t-95.5 -50q-19 0 -34 13t-15 28v4q9 76 159 177q146 102 328 102q134 0 241 -81t107 -210q0 -165 -100.5 -338.5t-267.5 -386.5z
" />
    <glyph glyph-name="threequarters" unicode="&#xbe;" horiz-adv-x="3322" 
d="M954 2048q150 -29 226.5 -99t76.5 -216q0 -176 -93.5 -332.5t-250 -250t-331.5 -93.5q-84 0 -208 40t-124 107q0 25 18.5 41.5t42.5 16.5q27 -6 114 -42t144 -36q121 0 224.5 66t163 175.5t59.5 229.5q0 250 -275 250q-55 0 -77 -9q-33 0 -41 33q0 32 118 110t188 146.5
t70 173.5q0 72 -45.5 118.5t-117.5 49.5q-78 0 -112 -21t-96 -69.5t-104 -48.5q-51 0 -57 37q0 73 89.5 133t204 98.5t157.5 38.5q116 0 204.5 -63.5t94.5 -173.5q0 -213 -263 -410zM2724 2605l-1753 -2535q-65 -99 -131 -99q-78 0 -78 49q2 5 8 15t8 14l1778 2581
q49 73 123 73q65 0 69 -28q0 -38 -24 -70zM2732 492h-565q-78 0 -78 49q0 28 48 96.5t106.5 137.5t78.5 93q124 157 644 734q36 36 69 36q40 0 45 -28q0 -25 -4 -37q-25 -116 -37 -225l-86 -684h29q42 0 99 45t93 45q41 0 41 -41q0 -1 -2 -8t-2 -9l-65 -159q-23 -45 -62 -45
h-151l-66 -553q-15 -95 -176 -95q-53 0 -53 50q0 24 4 32q24 95 38.5 182t24.5 167.5t27 216.5zM2753 664l73 606q-239 -228 -508 -606h435z" />
    <glyph glyph-name="questiondown" unicode="&#xbf;" horiz-adv-x="1163" 
d="M262 160q88 107 198 242t175 262.5t65 265.5q0 21 -8 59t-8 55q0 29 29 29q47 0 68.5 -87.5t21.5 -158.5q0 -129 -58 -252.5t-173.5 -302.5t-169.5 -287.5t-54 -217.5q0 -124 99 -218t221 -94q48 0 107 47t89 47q37 0 37 -28q-8 -87 -144.5 -152t-236.5 -65
q-110 0 -217 57.5t-174.5 155t-67.5 209.5q0 111 51.5 207.5t149.5 226.5zM561 1712q6 26 83.5 87.5t117.5 113.5q31 41 53 41q18 0 49 -41q37 -68 111 -135q33 -35 33 -54q0 -31 -45 -69q-3 -2 -50.5 -49t-86 -79t-60.5 -32q-29 6 -117 99t-88 118z" />
    <glyph glyph-name="Agrave" unicode="&#xc0;" horiz-adv-x="2630" 
d="M1761 987h-823h-41q-96 0 -131 -69l-254 -508q-61 -132 -61 -193q0 -72 54.5 -100.5t149.5 -46.5q66 -11 66 -54v-4q0 -28 -57 -28q-52 0 -156 10t-156 10q-139 0 -209 -8q-17 -2 -52 -5t-54 -7q-74 0 -74 41q0 40 62 57q80 21 130.5 51.5t81 71t60 106t55.5 123.5
l1147 2237q7 13 16.5 31.5t22 29.5t31.5 12h4q41 0 65 -73l652 -2085q31 -107 64 -213.5t87.5 -183.5t151.5 -107q57 -16 57 -49q0 -49 -82 -49q-52 0 -157 10t-158 10q-54 0 -162 -10t-162 -10q-68 0 -78 36q0 33 81 62.5t121 54.5t40 96q0 93 -29 173l-139 438
q-26 80 -47 111.5t-84 31.5h-33zM1769 1331l-262 823q-4 11 -9.5 32.5t-10.5 33.5q0 41 -25 41h-4q-13 0 -28 -45q-9 -15 -18 -33t-15 -29l-467 -901q-4 -7 -13.5 -31t-15.5 -34v-4q0 -25 49 -25h41h692h17q106 0 106 49q0 25 -12.5 59t-24.5 64zM1442 3367l270 -328
q37 -46 37 -70q0 -41 -33 -41q-43 0 -121 32t-150 69.5t-147 75.5q-151 70 -151 172q0 67 44 115t111 48q74 0 140 -73z" />
    <glyph glyph-name="Aacute" unicode="&#xc1;" horiz-adv-x="2630" 
d="M1761 987h-823h-41q-96 0 -131 -69l-254 -508q-61 -132 -61 -193q0 -72 54.5 -100.5t149.5 -46.5q66 -11 66 -54v-4q0 -28 -57 -28q-52 0 -156 10t-156 10q-139 0 -209 -8q-17 -2 -52 -5t-54 -7q-74 0 -74 41q0 40 62 57q80 21 130.5 51.5t81 71t60 106t55.5 123.5
l1147 2237q7 13 16.5 31.5t22 29.5t31.5 12h4q41 0 65 -73l652 -2085q31 -107 64 -213.5t87.5 -183.5t151.5 -107q57 -16 57 -49q0 -49 -82 -49q-52 0 -157 10t-158 10q-54 0 -162 -10t-162 -10q-68 0 -78 36q0 33 81 62.5t121 54.5t40 96q0 93 -29 173l-139 438
q-26 80 -47 111.5t-84 31.5h-33zM1769 1331l-262 823q-4 11 -9.5 32.5t-10.5 33.5q0 41 -25 41h-4q-13 0 -28 -45q-9 -15 -18 -33t-15 -29l-467 -901q-4 -7 -13.5 -31t-15.5 -34v-4q0 -25 49 -25h41h692h17q106 0 106 49q0 25 -12.5 59t-24.5 64zM1491 3068l254 262
q98 98 164 98q64 0 109.5 -52t45.5 -116q0 -112 -143 -160q-69 -28 -160.5 -65.5t-164.5 -63.5t-109 -26q-49 0 -49 37v4q4 30 53 82z" />
    <glyph glyph-name="Acircumflex" unicode="&#xc2;" horiz-adv-x="2630" 
d="M1761 987h-823h-41q-96 0 -131 -69l-254 -508q-61 -132 -61 -193q0 -72 54.5 -100.5t149.5 -46.5q66 -11 66 -54v-4q0 -28 -57 -28q-52 0 -156 10t-156 10q-139 0 -209 -8q-17 -2 -52 -5t-54 -7q-74 0 -74 41q0 40 62 57q80 21 130.5 51.5t81 71t60 106t55.5 123.5
l1147 2237q7 13 16.5 31.5t22 29.5t31.5 12h4q41 0 65 -73l652 -2085q31 -107 64 -213.5t87.5 -183.5t151.5 -107q57 -16 57 -49q0 -49 -82 -49q-52 0 -157 10t-158 10q-54 0 -162 -10t-162 -10q-68 0 -78 36q0 33 81 62.5t121 54.5t40 96q0 93 -29 173l-139 438
q-26 80 -47 111.5t-84 31.5h-33zM1769 1331l-262 823q-4 11 -9.5 32.5t-10.5 33.5q0 41 -25 41h-4q-13 0 -28 -45q-9 -15 -18 -33t-15 -29l-467 -901q-4 -7 -13.5 -31t-15.5 -34v-4q0 -25 49 -25h41h692h17q106 0 106 49q0 25 -12.5 59t-24.5 64zM1696 3449l328 -434
q8 -8 16 -33q0 -28 -29 -28h-4q-20 0 -86 39.5t-154 98.5t-116 75l-496 -205q-24 -8 -41 -8q-41 0 -41 32q0 3 2 7t2 6q13 17 29 28z" />
    <glyph glyph-name="Atilde" unicode="&#xc3;" horiz-adv-x="2630" 
d="M1761 987h-823h-41q-96 0 -131 -69l-254 -508q-61 -132 -61 -193q0 -72 54.5 -100.5t149.5 -46.5q66 -11 66 -54v-4q0 -28 -57 -28q-52 0 -156 10t-156 10q-139 0 -209 -8q-17 -2 -52 -5t-54 -7q-74 0 -74 41q0 40 62 57q80 21 130.5 51.5t81 71t60 106t55.5 123.5
l1147 2237q7 13 16.5 31.5t22 29.5t31.5 12h4q41 0 65 -73l652 -2085q31 -107 64 -213.5t87.5 -183.5t151.5 -107q57 -16 57 -49q0 -49 -82 -49q-52 0 -157 10t-158 10q-54 0 -162 -10t-162 -10q-68 0 -78 36q0 33 81 62.5t121 54.5t40 96q0 93 -29 173l-139 438
q-26 80 -47 111.5t-84 31.5h-33zM1769 1331l-262 823q-4 11 -9.5 32.5t-10.5 33.5q0 41 -25 41h-4q-13 0 -28 -45q-9 -15 -18 -33t-15 -29l-467 -901q-4 -7 -13.5 -31t-15.5 -34v-4q0 -25 49 -25h41h692h17q106 0 106 49q0 25 -12.5 59t-24.5 64zM1503 3359q64 0 173 -53.5
t171 -53.5q92 0 181 74q46 49 69 49q25 0 25 -32q0 -66 -60 -141t-146 -127t-155 -52q-56 0 -117 30t-122 59.5t-117 29.5q-52 0 -77.5 -19.5t-65.5 -59.5t-66 -40q-33 0 -33 29v4q0 88 126.5 192t213.5 111z" />
    <glyph glyph-name="Adieresis" unicode="&#xc4;" horiz-adv-x="2630" 
d="M1761 987h-823h-41q-96 0 -131 -69l-254 -508q-61 -132 -61 -193q0 -72 54.5 -100.5t149.5 -46.5q66 -11 66 -54v-4q0 -28 -57 -28q-52 0 -156 10t-156 10q-139 0 -209 -8q-17 -2 -52 -5t-54 -7q-74 0 -74 41q0 40 62 57q80 21 130.5 51.5t81 71t60 106t55.5 123.5
l1147 2237q7 13 16.5 31.5t22 29.5t31.5 12h4q41 0 65 -73l652 -2085q31 -107 64 -213.5t87.5 -183.5t151.5 -107q57 -16 57 -49q0 -49 -82 -49q-52 0 -157 10t-158 10q-54 0 -162 -10t-162 -10q-68 0 -78 36q0 33 81 62.5t121 54.5t40 96q0 93 -29 173l-139 438
q-26 80 -47 111.5t-84 31.5h-33zM1769 1331l-262 823q-4 11 -9.5 32.5t-10.5 33.5q0 41 -25 41h-4q-13 0 -28 -45q-9 -15 -18 -33t-15 -29l-467 -901q-4 -7 -13.5 -31t-15.5 -34v-4q0 -25 49 -25h41h692h17q106 0 106 49q0 25 -12.5 59t-24.5 64zM1417 3191q0 -17 -28 -45
q-8 -8 -39.5 -48.5t-62 -72t-50.5 -31.5h-4q-33 9 -58.5 61.5t-51.5 106.5q-21 19 -21 41q0 18 10 34.5t28.5 34.5t35.5 34q7 7 29 37t39.5 47.5t33.5 17.5q14 -3 37 -37q53 -107 77.5 -133t24.5 -47zM2069 3191q0 -16 -29 -45q-8 -7 -65 -79.5t-86 -72.5h-5q-17 3 -74 90.5
t-57 118.5q0 24 27 52.5t51 50.5q16 21 31.5 43.5t35 40.5t36.5 18q16 -8 75.5 -91.5t59.5 -125.5z" />
    <glyph glyph-name="Aring" unicode="&#xc5;" horiz-adv-x="2630" 
d="M1761 987h-823h-41q-96 0 -131 -69l-254 -508q-61 -132 -61 -193q0 -72 54.5 -100.5t149.5 -46.5q66 -11 66 -54v-4q0 -28 -57 -28q-52 0 -156 10t-156 10q-139 0 -209 -8q-17 -2 -52 -5t-54 -7q-74 0 -74 41q0 40 62 57q80 21 130.5 51.5t81 71t60 106t55.5 123.5
l1147 2237q7 13 16.5 31.5t22 29.5t31.5 12h4q41 0 65 -73l652 -2085q31 -107 64 -213.5t87.5 -183.5t151.5 -107q57 -16 57 -49q0 -49 -82 -49q-52 0 -157 10t-158 10q-54 0 -162 -10t-162 -10q-68 0 -78 36q0 33 81 62.5t121 54.5t40 96q0 93 -29 173l-139 438
q-26 80 -47 111.5t-84 31.5h-33zM1769 1331l-262 823q-4 11 -9.5 32.5t-10.5 33.5q0 41 -25 41h-4q-13 0 -28 -45q-9 -15 -18 -33t-15 -29l-467 -901q-4 -7 -13.5 -31t-15.5 -34v-4q0 -25 49 -25h41h692h17q106 0 106 49q0 25 -12.5 59t-24.5 64zM1237 3203q0 136 113 215.5
t255 79.5q139 0 252 -80.5t113 -214.5q0 -133 -114 -214t-251 -81q-141 0 -254.5 80t-113.5 215zM1409 3203q0 -82 56 -139.5t136 -57.5q83 0 140 56t57 141q0 84 -56 140t-141 56q-82 0 -137 -57.5t-55 -138.5z" />
    <glyph glyph-name="AE" unicode="&#xc6;" horiz-adv-x="3822" 
d="M2490 2441l-106 -872q-4 -8 -4 -29q0 -53 86 -53h557q139 0 219.5 57t112.5 189q15 45 45 49h4q33 0 33 -49q0 -99 -30 -281.5t-32 -267.5q-2 -33 -5.5 -89t-16 -100.5t-39.5 -44.5q-32 0 -41 54l-4 90q-11 217 -312 217h-479q-69 0 -100 -14t-39 -76l-103 -856
q-4 -29 -4 -82q19 -123 242 -123q397 0 642.5 53.5t359.5 124t172 142t71 73.5q45 0 45 -45q0 -79 -77.5 -205.5t-151.5 -200.5q-72 -78 -167 -98t-247 -20q-133 0 -399 14t-400 14q-94 0 -280 -14t-281 -14q-73 0 -73 41v4q3 25 73 45q83 22 118.5 59t45 78t25.5 158
l69 569q0 66 -69 66h-832q-81 0 -107.5 -15.5t-84.5 -87.5l-394 -479q-86 -114 -94 -184q0 -63 45 -104.5t111 -51.5q94 -11 94 -53q0 -45 -61 -45q-54 0 -162 10t-162 10q-147 0 -217 -8q-17 -2 -54 -5t-57 -7q-60 0 -65 32v4q0 43 70 62q95 30 158.5 91t160.5 179l578 713
q218 266 361.5 438t301.5 357l545 634q27 36 33 70q0 39 -26.5 54t-79 21.5t-76 15.5t-23.5 40q0 49 94 49q406 -28 1045 -28q380 0 573 20q106 8 160 8q53 0 53 -41q0 -336 4 -503q0 -66 -45 -66q-43 0 -53 82q-9 150 -61 225.5t-151 101t-276 25.5q-30 0 -82 -2t-73 -2
q-312 0 -467 8q-82 0 -108 -31.5t-36 -99.5zM2060 1282l119 971q0 1 2 13t2 20q0 57 -24 57h-5q-10 0 -21 -10t-23.5 -25.5t-24.5 -30.5l-844 -991l-29 -37q-12 -12 -12 -24v-4q0 -17 25 -17h28h729q41 0 56 18t22 60z" />
    <glyph glyph-name="Ccedilla" unicode="&#xc7;" horiz-adv-x="2744" 
d="M1528 -41l-58 -229q105 -16 184 -81t79 -165q0 -110 -87.5 -174t-199.5 -64q-84 0 -201 65t-135 144q0 29 25 29q19 0 105 -52t140 -55q52 0 93.5 31.5t50.5 79.5q0 117 -156 172l82 299q-388 15 -664 176.5t-418.5 450.5t-142.5 676q0 303 92.5 577t268.5 484.5t428 330
t563 119.5q211 0 405 -61t349.5 -139.5t162.5 -78.5q18 0 41 27t41 27h4q46 0 46 -74q0 -161 24 -487q8 -50 8 -74q0 -78 -41 -78h-4q-46 0 -69 102q-53 206 -200 366.5t-350.5 249.5t-416.5 89q-159 0 -304.5 -47.5t-271.5 -139.5t-219 -219q-142 -196 -196 -429t-54 -517
q0 -291 121.5 -569.5t349.5 -454.5t525 -176q177 0 369 73.5t339.5 208t200.5 304.5q41 127 86 127h4q41 -5 41 -78q0 -74 -37.5 -202.5t-44.5 -170.5q-13 -79 -124 -149.5t-270 -123t-314 -84t-250 -36.5z" />
    <glyph glyph-name="Egrave" unicode="&#xc8;" horiz-adv-x="2335" 
d="M463 369l237 1945q9 74 9 119q0 118 -58.5 157t-151.5 59.5t-93 53.5v4q5 37 61 37q76 0 434 -20q78 0 237 -2t238 -2q153 0 461 12t461 12q53 0 53 -49l-4 -192l8 -303q0 -62 -45 -62q-43 0 -53 82q-7 152 -68.5 228.5t-162.5 98t-265 21.5q-105 0 -316 4t-315 4
q-72 0 -96 -27.5t-30 -103.5l-111 -872v-33q0 -53 65 -53h17h561q139 0 219.5 57t112.5 189q14 49 45 53h4q33 0 33 -49q0 -97 -30 -280.5t-32 -268.5q-2 -32 -5.5 -89t-16.5 -101t-39 -44q-41 0 -41 50l-4 94q-10 217 -312 217h-479q-96 0 -112.5 -14t-26.5 -76l-102 -860
q-5 -25 -5 -78q14 -123 242 -123q407 0 644 50.5t335.5 114.5t163 141.5t102.5 86.5q45 0 45 -45q0 -81 -76.5 -205.5t-152.5 -204.5q-75 -75 -169 -94.5t-245 -19.5q-133 0 -399 14t-399 14q-95 0 -281 -14t-281 -14q-73 0 -73 41v4q1 15 12 23t26 12.5t31 9.5
q116 31 145 89.5t48 201.5zM1299 3371l270 -328q37 -46 37 -70q0 -41 -33 -41q-43 0 -121 32t-150 69.5t-147 75.5q-151 70 -151 172q0 67 44 115t111 48q74 0 140 -73z" />
    <glyph glyph-name="Eacute" unicode="&#xc9;" horiz-adv-x="2335" 
d="M463 369l237 1945q9 74 9 119q0 118 -58.5 157t-151.5 59.5t-93 53.5v4q5 37 61 37q76 0 434 -20q78 0 237 -2t238 -2q153 0 461 12t461 12q53 0 53 -49l-4 -192l8 -303q0 -62 -45 -62q-43 0 -53 82q-7 152 -68.5 228.5t-162.5 98t-265 21.5q-105 0 -316 4t-315 4
q-72 0 -96 -27.5t-30 -103.5l-111 -872v-33q0 -53 65 -53h17h561q139 0 219.5 57t112.5 189q14 49 45 53h4q33 0 33 -49q0 -97 -30 -280.5t-32 -268.5q-2 -32 -5.5 -89t-16.5 -101t-39 -44q-41 0 -41 50l-4 94q-10 217 -312 217h-479q-96 0 -112.5 -14t-26.5 -76l-102 -860
q-5 -25 -5 -78q14 -123 242 -123q407 0 644 50.5t335.5 114.5t163 141.5t102.5 86.5q45 0 45 -45q0 -81 -76.5 -205.5t-152.5 -204.5q-75 -75 -169 -94.5t-245 -19.5q-133 0 -399 14t-399 14q-95 0 -281 -14t-281 -14q-73 0 -73 41v4q1 15 12 23t26 12.5t31 9.5
q116 31 145 89.5t48 201.5zM1294 3068l254 262q98 98 164 98q64 0 109.5 -52t45.5 -116q0 -112 -143 -160q-69 -28 -160.5 -65.5t-164.5 -63.5t-109 -26q-49 0 -49 37v4q4 30 53 82z" />
    <glyph glyph-name="Ecircumflex" unicode="&#xca;" horiz-adv-x="2335" 
d="M463 369l237 1945q9 74 9 119q0 118 -58.5 157t-151.5 59.5t-93 53.5v4q5 37 61 37q76 0 434 -20q78 0 237 -2t238 -2q153 0 461 12t461 12q53 0 53 -49l-4 -192l8 -303q0 -62 -45 -62q-43 0 -53 82q-7 152 -68.5 228.5t-162.5 98t-265 21.5q-105 0 -316 4t-315 4
q-72 0 -96 -27.5t-30 -103.5l-111 -872v-33q0 -53 65 -53h17h561q139 0 219.5 57t112.5 189q14 49 45 53h4q33 0 33 -49q0 -97 -30 -280.5t-32 -268.5q-2 -32 -5.5 -89t-16.5 -101t-39 -44q-41 0 -41 50l-4 94q-10 217 -312 217h-479q-96 0 -112.5 -14t-26.5 -76l-102 -860
q-5 -25 -5 -78q14 -123 242 -123q407 0 644 50.5t335.5 114.5t163 141.5t102.5 86.5q45 0 45 -45q0 -81 -76.5 -205.5t-152.5 -204.5q-75 -75 -169 -94.5t-245 -19.5q-133 0 -399 14t-399 14q-95 0 -281 -14t-281 -14q-73 0 -73 41v4q1 15 12 23t26 12.5t31 9.5
q116 31 145 89.5t48 201.5zM1606 3453l328 -434q8 -8 16 -33q0 -28 -29 -28h-4q-20 0 -86 39.5t-154 98.5t-116 75l-496 -205q-24 -8 -41 -8q-41 0 -41 32q0 3 2 7t2 6q13 17 29 28z" />
    <glyph glyph-name="Edieresis" unicode="&#xcb;" horiz-adv-x="2335" 
d="M463 369l237 1945q9 74 9 119q0 118 -58.5 157t-151.5 59.5t-93 53.5v4q5 37 61 37q76 0 434 -20q78 0 237 -2t238 -2q153 0 461 12t461 12q53 0 53 -49l-4 -192l8 -303q0 -62 -45 -62q-43 0 -53 82q-7 152 -68.5 228.5t-162.5 98t-265 21.5q-105 0 -316 4t-315 4
q-72 0 -96 -27.5t-30 -103.5l-111 -872v-33q0 -53 65 -53h17h561q139 0 219.5 57t112.5 189q14 49 45 53h4q33 0 33 -49q0 -97 -30 -280.5t-32 -268.5q-2 -32 -5.5 -89t-16.5 -101t-39 -44q-41 0 -41 50l-4 94q-10 217 -312 217h-479q-96 0 -112.5 -14t-26.5 -76l-102 -860
q-5 -25 -5 -78q14 -123 242 -123q407 0 644 50.5t335.5 114.5t163 141.5t102.5 86.5q45 0 45 -45q0 -81 -76.5 -205.5t-152.5 -204.5q-75 -75 -169 -94.5t-245 -19.5q-133 0 -399 14t-399 14q-95 0 -281 -14t-281 -14q-73 0 -73 41v4q1 15 12 23t26 12.5t31 9.5
q116 31 145 89.5t48 201.5zM1327 3191q0 -17 -28 -45q-8 -8 -39.5 -48.5t-62 -72t-50.5 -31.5h-4q-33 9 -58.5 61.5t-51.5 106.5q-21 19 -21 41q0 18 10 34.5t28.5 34.5t35.5 34q7 7 29 37t39.5 47.5t33.5 17.5q14 -3 37 -37q53 -107 77.5 -133t24.5 -47zM1979 3191
q0 -16 -29 -45q-8 -7 -65 -79.5t-86 -72.5h-5q-17 3 -74 90.5t-57 118.5q0 24 27 52.5t51 50.5q16 21 31.5 43.5t35 40.5t36.5 18q16 -8 75.5 -91.5t59.5 -125.5z" />
    <glyph glyph-name="Igrave" unicode="&#xcc;" horiz-adv-x="1245" 
d="M463 369l237 1945q9 74 9 119q0 118 -58.5 157t-151.5 59.5t-93 53.5v4q5 37 61 37q60 0 179 -10t177 -10q59 0 178 10t179 10q73 0 73 -37v-4q-5 -28 -41 -37q-98 -24 -136.5 -52t-52.5 -75.5t-32 -175.5l-237 -1945q-9 -83 -9 -119q0 -175 189 -213q3 -1 37 -7.5
t53.5 -18.5t19.5 -31v-4q0 -37 -61 -37q-60 0 -176 10t-176 10t-179 -10t-178 -10q-73 0 -73 41v4q3 21 70 42.5t120 80.5t72 213zM754 3371l270 -328q37 -46 37 -70q0 -41 -33 -41q-43 0 -121 32t-150 69.5t-147 75.5q-151 70 -151 172q0 67 44 115t111 48q74 0 140 -73z
" />
    <glyph glyph-name="Iacute" unicode="&#xcd;" horiz-adv-x="1245" 
d="M463 369l237 1945q9 74 9 119q0 118 -58.5 157t-151.5 59.5t-93 53.5v4q5 37 61 37q60 0 179 -10t177 -10q59 0 178 10t179 10q73 0 73 -37v-4q-5 -28 -41 -37q-98 -24 -136.5 -52t-52.5 -75.5t-32 -175.5l-237 -1945q-9 -83 -9 -119q0 -175 189 -213q3 -1 37 -7.5
t53.5 -18.5t19.5 -31v-4q0 -37 -61 -37q-60 0 -176 10t-176 10t-179 -10t-178 -10q-73 0 -73 41v4q3 21 70 42.5t120 80.5t72 213zM750 3068l254 262q98 98 164 98q64 0 109.5 -52t45.5 -116q0 -112 -143 -160q-69 -28 -160.5 -65.5t-164.5 -63.5t-109 -26q-49 0 -49 37v4
q4 30 53 82z" />
    <glyph glyph-name="Icircumflex" unicode="&#xce;" horiz-adv-x="1245" 
d="M463 369l237 1945q9 74 9 119q0 118 -58.5 157t-151.5 59.5t-93 53.5v4q5 37 61 37q60 0 179 -10t177 -10q59 0 178 10t179 10q73 0 73 -37v-4q-5 -28 -41 -37q-98 -24 -136.5 -52t-52.5 -75.5t-32 -175.5l-237 -1945q-9 -83 -9 -119q0 -175 189 -213q3 -1 37 -7.5
t53.5 -18.5t19.5 -31v-4q0 -37 -61 -37q-60 0 -176 10t-176 10t-179 -10t-178 -10q-73 0 -73 41v4q3 21 70 42.5t120 80.5t72 213zM1008 3453l328 -434q8 -8 16 -33q0 -28 -29 -28h-4q-20 0 -86 39.5t-154 98.5t-116 75l-496 -205q-24 -8 -41 -8q-41 0 -41 32q0 3 2 7t2 6
q13 17 29 28z" />
    <glyph glyph-name="Idieresis" unicode="&#xcf;" horiz-adv-x="1245" 
d="M463 369l237 1945q9 74 9 119q0 118 -58.5 157t-151.5 59.5t-93 53.5v4q5 37 61 37q60 0 179 -10t177 -10q59 0 178 10t179 10q73 0 73 -37v-4q-5 -28 -41 -37q-98 -24 -136.5 -52t-52.5 -75.5t-32 -175.5l-237 -1945q-9 -83 -9 -119q0 -175 189 -213q3 -1 37 -7.5
t53.5 -18.5t19.5 -31v-4q0 -37 -61 -37q-60 0 -176 10t-176 10t-179 -10t-178 -10q-73 0 -73 41v4q3 21 70 42.5t120 80.5t72 213zM733 3191q0 -17 -28 -45q-8 -8 -39.5 -48.5t-62 -72t-50.5 -31.5h-4q-33 9 -58.5 61.5t-51.5 106.5q-21 19 -21 41q0 18 10 34.5t28.5 34.5
t35.5 34q7 7 29 37t39.5 47.5t33.5 17.5q14 -3 37 -37q53 -107 77.5 -133t24.5 -47zM1385 3191q0 -16 -29 -45q-8 -7 -65 -79.5t-86 -72.5h-5q-17 3 -74 90.5t-57 118.5q0 24 27 52.5t51 50.5q16 21 31.5 43.5t35 40.5t36.5 18q16 -8 75.5 -91.5t59.5 -125.5z" />
    <glyph glyph-name="Eth" unicode="&#xd0;" horiz-adv-x="2761" 
d="M582 1360h-140q-94 0 -94 53q0 70 111 70h139l102 831q9 74 9 119q0 118 -58.5 157t-151.5 59.5t-93 53.5v4q5 37 61 37q65 0 194 -12t195 -12q110 0 329 12t331 12q347 0 630.5 -116t451 -358.5t167.5 -598.5q0 -224 -57.5 -442t-169 -418.5t-270 -364t-351.5 -274.5
q-133 -74 -277.5 -114t-298 -55t-317.5 -15q-84 0 -250 14t-250 14q-43 0 -125 -14t-125 -14q-73 0 -73 41v4q3 21 70 42.5t120 80.5t72 213zM868 1360l-123 -1004q-8 -74 -8 -110q0 -89 62 -116.5t168 -27.5q194 0 351.5 20t310.5 78.5t280 164.5q169 142 291.5 360.5
t185.5 467.5t63 474q0 164 -51 321t-151 286t-240 212q-135 82 -298.5 108.5t-377.5 26.5q-130 0 -194 -15t-97.5 -70.5t-48.5 -180.5l-106 -872h504q94 0 94 -53q0 -70 -111 -70h-504z" />
    <glyph glyph-name="Ntilde" unicode="&#xd1;" horiz-adv-x="2982" 
d="M561 627l184 1265q25 132 25 279q0 181 -94.5 324t-269.5 143q-16 0 -50 -6t-53 -6q-41 0 -41 24q0 53 67 73.5t117 20.5q56 0 165 -4t163 -4q76 0 123 -57l459 -656q235 -331 483 -729l442 -704q43 -70 66 -70q4 0 12 8q13 13 58 293.5t89 592t50 380.5l45 438
q8 132 8 201q0 116 -57.5 154t-151.5 58t-102 54q0 45 74 45q48 0 147 -10t152 -10q51 0 153 10t154 10q68 0 78 -37q0 -27 -13.5 -33t-56.5 -16q-111 -15 -161.5 -106.5t-63.5 -226.5t-21 -232q-90 -886 -213 -1561l-78 -426q-10 -57 -23 -87.5t-54 -30.5q-31 0 -62 45
l-459 725l-245 377q-94 144 -172 265t-111 169l-303 430q-5 7 -17 30t-24.5 39.5t-28.5 16.5h-4q-12 -4 -17.5 -18.5t-9 -33t-6.5 -34.5l-184 -1512q-4 -37 -7.5 -66.5t-6 -56t-2.5 -57.5q0 -185 205 -217q98 -14 98 -53q0 -49 -90 -49q-56 0 -164 10t-164 10t-166 -10
t-166 -10q-49 0 -49 37v4q3 27 86 61q83 27 131.5 82.5t72 130t34 156.5t20.5 168zM1622 3363q64 0 173 -53.5t171 -53.5q92 0 181 74q46 49 69 49q25 0 25 -32q0 -66 -60 -141t-146 -127t-155 -52q-56 0 -117 30t-122 59.5t-117 29.5q-52 0 -77.5 -19.5t-65.5 -59.5
t-66 -40q-33 0 -33 29v4q0 88 126.5 192t213.5 111z" />
    <glyph glyph-name="Ograve" unicode="&#xd2;" horiz-adv-x="2941" 
d="M2920 1516q0 -436 -164 -791.5t-483 -560.5t-762 -205q-377 0 -670 150t-456.5 431t-163.5 660q0 303 102 587t291.5 507t453 351t574.5 128q341 0 636 -168.5t468.5 -457t173.5 -631.5zM2589 1556q0 292 -123.5 546t-352 407t-524.5 153q-264 0 -465.5 -126t-331 -334.5
t-192.5 -460t-63 -496.5q0 -296 122.5 -564.5t351.5 -435.5t529 -167q368 0 604 222t340.5 560t104.5 696zM1598 3367l270 -328q37 -46 37 -70q0 -41 -33 -41q-43 0 -121 32t-150 69.5t-147 75.5q-151 70 -151 172q0 67 44 115t111 48q74 0 140 -73z" />
    <glyph glyph-name="Oacute" unicode="&#xd3;" horiz-adv-x="2941" 
d="M2920 1516q0 -436 -164 -791.5t-483 -560.5t-762 -205q-377 0 -670 150t-456.5 431t-163.5 660q0 303 102 587t291.5 507t453 351t574.5 128q341 0 636 -168.5t468.5 -457t173.5 -631.5zM2589 1556q0 292 -123.5 546t-352 407t-524.5 153q-264 0 -465.5 -126t-331 -334.5
t-192.5 -460t-63 -496.5q0 -296 122.5 -564.5t351.5 -435.5t529 -167q368 0 604 222t340.5 560t104.5 696zM1593 3068l254 262q98 98 164 98q64 0 109.5 -52t45.5 -116q0 -112 -143 -160q-69 -28 -160.5 -65.5t-164.5 -63.5t-109 -26q-49 0 -49 37v4q4 30 53 82z" />
    <glyph glyph-name="Ocircumflex" unicode="&#xd4;" horiz-adv-x="2941" 
d="M2920 1516q0 -436 -164 -791.5t-483 -560.5t-762 -205q-377 0 -670 150t-456.5 431t-163.5 660q0 303 102 587t291.5 507t453 351t574.5 128q341 0 636 -168.5t468.5 -457t173.5 -631.5zM2589 1556q0 292 -123.5 546t-352 407t-524.5 153q-264 0 -465.5 -126t-331 -334.5
t-192.5 -460t-63 -496.5q0 -296 122.5 -564.5t351.5 -435.5t529 -167q368 0 604 222t340.5 560t104.5 696zM1851 3453l328 -434q8 -8 16 -33q0 -28 -29 -28h-4q-20 0 -86 39.5t-154 98.5t-116 75l-496 -205q-24 -8 -41 -8q-41 0 -41 32q0 3 2 7t2 6q13 17 29 28z" />
    <glyph glyph-name="Otilde" unicode="&#xd5;" horiz-adv-x="2941" 
d="M2920 1516q0 -436 -164 -791.5t-483 -560.5t-762 -205q-377 0 -670 150t-456.5 431t-163.5 660q0 303 102 587t291.5 507t453 351t574.5 128q341 0 636 -168.5t468.5 -457t173.5 -631.5zM2589 1556q0 292 -123.5 546t-352 407t-524.5 153q-264 0 -465.5 -126t-331 -334.5
t-192.5 -460t-63 -496.5q0 -296 122.5 -564.5t351.5 -435.5t529 -167q368 0 604 222t340.5 560t104.5 696zM1601 3359q64 0 173 -53.5t171 -53.5q92 0 181 74q46 49 69 49q25 0 25 -32q0 -66 -60 -141t-146 -127t-155 -52q-56 0 -117 30t-122 59.5t-117 29.5
q-52 0 -77.5 -19.5t-65.5 -59.5t-66 -40q-33 0 -33 29v4q0 88 126.5 192t213.5 111z" />
    <glyph glyph-name="Odieresis" unicode="&#xd6;" horiz-adv-x="2941" 
d="M2920 1516q0 -436 -164 -791.5t-483 -560.5t-762 -205q-377 0 -670 150t-456.5 431t-163.5 660q0 303 102 587t291.5 507t453 351t574.5 128q341 0 636 -168.5t468.5 -457t173.5 -631.5zM2589 1556q0 292 -123.5 546t-352 407t-524.5 153q-264 0 -465.5 -126t-331 -334.5
t-192.5 -460t-63 -496.5q0 -296 122.5 -564.5t351.5 -435.5t529 -167q368 0 604 222t340.5 560t104.5 696zM1572 3191q0 -17 -28 -45q-8 -8 -39.5 -48.5t-62 -72t-50.5 -31.5h-4q-33 9 -58.5 61.5t-51.5 106.5q-21 19 -21 41q0 18 10 34.5t28.5 34.5t35.5 34q7 7 29 37
t39.5 47.5t33.5 17.5q14 -3 37 -37q53 -107 77.5 -133t24.5 -47zM2224 3191q0 -16 -29 -45q-8 -7 -65 -79.5t-86 -72.5h-5q-17 3 -74 90.5t-57 118.5q0 24 27 52.5t51 50.5q16 21 31.5 43.5t35 40.5t36.5 18q16 -8 75.5 -91.5t59.5 -125.5z" />
    <glyph glyph-name="multiply" unicode="&#xd7;" 
d="M471 2154l647 -655l656 655l114 -114l-655 -656l655 -651l-114 -110l-652 651l-655 -656l-115 119l656 652l-652 651z" />
    <glyph glyph-name="Oslash" unicode="&#xd8;" horiz-adv-x="2941" 
d="M508 369q-287 360 -287 831q0 304 102.5 587.5t293 507t454 351t576.5 127.5q236 0 458.5 -83t401.5 -241l241 254q58 58 95 58h4q24 -3 48.5 -23t29.5 -43v-4q0 -38 -62 -98l-246 -254q148 -175 228 -388t80 -435q0 -438 -164.5 -793.5t-485 -559.5t-764.5 -204
q-535 0 -888 291q-50 -57 -106 -120.5t-116 -113t-106 -49.5q-23 0 -47 20.5t-27 45.5v4q0 32 52 93.5t141.5 148t93.5 90.5zM709 582l1646 1712q-135 170 -342 269t-424 99q-265 0 -466 -126.5t-331 -336.5t-192.5 -460.5t-62.5 -493.5q0 -353 172 -663zM2445 2159
l-1642 -1717q137 -170 329 -267t408 -97q361 0 599 223t346 563t108 692q0 326 -148 603z" />
    <glyph glyph-name="Ugrave" unicode="&#xd9;" horiz-adv-x="2925" 
d="M2605 2003q5 47 18.5 143t20 158.5t6.5 128.5q0 114 -58 153.5t-149.5 61t-91.5 55.5v4q0 37 62 37q49 0 147 -10t147 -10q53 0 152 10t147 10q74 0 74 -41v-4q-6 -23 -74 -45q-116 -27 -146.5 -86.5t-49.5 -204.5l-172 -1159q-46 -297 -135.5 -527t-237 -389.5
t-374 -244t-539.5 -84.5q-914 0 -914 803q0 128 13 246l118 1355q2 18 3.5 45.5t5.5 57.5q0 102 -39 137t-98.5 49t-59.5 39q0 53 82 53q46 0 142 -10t149 -10q49 0 147 10t148 10q73 0 73 -41v-4q0 -17 -37 -37q-99 -24 -138.5 -50t-54.5 -78.5t-28 -170.5l-61 -475
q-40 -390 -59 -647t-19 -532q0 -192 95 -330.5t253.5 -209.5t347.5 -71q211 0 408.5 72t337.5 215q99 101 157 221t89.5 250t60.5 303l70 406q9 55 61 438zM1512 3367l270 -328q37 -46 37 -70q0 -41 -33 -41q-43 0 -121 32t-150 69.5t-147 75.5q-151 70 -151 172
q0 67 44 115t111 48q74 0 140 -73z" />
    <glyph glyph-name="Uacute" unicode="&#xda;" horiz-adv-x="2925" 
d="M2605 2003q5 47 18.5 143t20 158.5t6.5 128.5q0 114 -58 153.5t-149.5 61t-91.5 55.5v4q0 37 62 37q49 0 147 -10t147 -10q53 0 152 10t147 10q74 0 74 -41v-4q-6 -23 -74 -45q-116 -27 -146.5 -86.5t-49.5 -204.5l-172 -1159q-46 -297 -135.5 -527t-237 -389.5
t-374 -244t-539.5 -84.5q-914 0 -914 803q0 128 13 246l118 1355q2 18 3.5 45.5t5.5 57.5q0 102 -39 137t-98.5 49t-59.5 39q0 53 82 53q46 0 142 -10t149 -10q49 0 147 10t148 10q73 0 73 -41v-4q0 -17 -37 -37q-99 -24 -138.5 -50t-54.5 -78.5t-28 -170.5l-61 -475
q-40 -390 -59 -647t-19 -532q0 -192 95 -330.5t253.5 -209.5t347.5 -71q211 0 408.5 72t337.5 215q99 101 157 221t89.5 250t60.5 303l70 406q9 55 61 438zM1585 3068l254 262q98 98 164 98q64 0 109.5 -52t45.5 -116q0 -112 -143 -160q-69 -28 -160.5 -65.5t-164.5 -63.5
t-109 -26q-49 0 -49 37v4q4 30 53 82z" />
    <glyph glyph-name="Ucircumflex" unicode="&#xdb;" horiz-adv-x="2925" 
d="M2605 2003q5 47 18.5 143t20 158.5t6.5 128.5q0 114 -58 153.5t-149.5 61t-91.5 55.5v4q0 37 62 37q49 0 147 -10t147 -10q53 0 152 10t147 10q74 0 74 -41v-4q-6 -23 -74 -45q-116 -27 -146.5 -86.5t-49.5 -204.5l-172 -1159q-46 -297 -135.5 -527t-237 -389.5
t-374 -244t-539.5 -84.5q-914 0 -914 803q0 128 13 246l118 1355q2 18 3.5 45.5t5.5 57.5q0 102 -39 137t-98.5 49t-59.5 39q0 53 82 53q46 0 142 -10t149 -10q49 0 147 10t148 10q73 0 73 -41v-4q0 -17 -37 -37q-99 -24 -138.5 -50t-54.5 -78.5t-28 -170.5l-61 -475
q-40 -390 -59 -647t-19 -532q0 -192 95 -330.5t253.5 -209.5t347.5 -71q211 0 408.5 72t337.5 215q99 101 157 221t89.5 250t60.5 303l70 406q9 55 61 438zM1901 3453l328 -434q8 -8 16 -33q0 -28 -29 -28h-4q-20 0 -86 39.5t-154 98.5t-116 75l-496 -205q-24 -8 -41 -8
q-41 0 -41 32q0 3 2 7t2 6q13 17 29 28z" />
    <glyph glyph-name="Udieresis" unicode="&#xdc;" horiz-adv-x="2925" 
d="M2605 2003q5 47 18.5 143t20 158.5t6.5 128.5q0 114 -58 153.5t-149.5 61t-91.5 55.5v4q0 37 62 37q49 0 147 -10t147 -10q53 0 152 10t147 10q74 0 74 -41v-4q-6 -23 -74 -45q-116 -27 -146.5 -86.5t-49.5 -204.5l-172 -1159q-46 -297 -135.5 -527t-237 -389.5
t-374 -244t-539.5 -84.5q-914 0 -914 803q0 128 13 246l118 1355q2 18 3.5 45.5t5.5 57.5q0 102 -39 137t-98.5 49t-59.5 39q0 53 82 53q46 0 142 -10t149 -10q49 0 147 10t148 10q73 0 73 -41v-4q0 -17 -37 -37q-99 -24 -138.5 -50t-54.5 -78.5t-28 -170.5l-61 -475
q-40 -390 -59 -647t-19 -532q0 -192 95 -330.5t253.5 -209.5t347.5 -71q211 0 408.5 72t337.5 215q99 101 157 221t89.5 250t60.5 303l70 406q9 55 61 438zM1568 3191q0 -17 -28 -45q-8 -8 -39.5 -48.5t-62 -72t-50.5 -31.5h-4q-33 9 -58.5 61.5t-51.5 106.5q-21 19 -21 41
q0 18 10 34.5t28.5 34.5t35.5 34q7 7 29 37t39.5 47.5t33.5 17.5q14 -3 37 -37q53 -107 77.5 -133t24.5 -47zM2220 3191q0 -16 -29 -45q-8 -7 -65 -79.5t-86 -72.5h-5q-17 3 -74 90.5t-57 118.5q0 24 27 52.5t51 50.5q16 21 31.5 43.5t35 40.5t36.5 18q16 -8 75.5 -91.5
t59.5 -125.5z" />
    <glyph glyph-name="Yacute" unicode="&#xdd;" horiz-adv-x="2408" 
d="M1458 1069l-78 -651q-8 -74 -8 -119q0 -175 189 -213q110 -16 110 -57v-4q0 -37 -61 -37q-58 0 -173 10t-171 10q-60 0 -179 -10t-178 -10q-69 0 -69 41v4q4 33 34 39t82 20.5t89.5 77t52.5 199.5l94 745q0 13 2 39t2 39q0 71 -70 192l-467 975q-74 149 -139.5 222.5
t-187.5 76.5q-86 12 -86 45q0 41 61 41q63 0 188 -10t189 -10q63 0 192 10t193 10q66 0 66 -37v-4q0 -24 -65 -43.5t-98.5 -39t-33.5 -76.5q0 -86 66 -226l376 -827q23 -55 41 -66h4q16 0 41 37q162 214 316 463q105 160 165.5 254.5t113.5 194.5t53 149q0 118 -177 127
q-90 0 -94 49q0 45 70 45q53 0 158 -10t157 -10q54 0 162 10t162 10q48 0 53 -32v-5q0 -34 -70 -53q-86 -19 -152 -82.5t-123 -155t-106 -171.5q-42 -66 -245 -351t-319 -486t-132 -339zM1335 3068l254 262q98 98 164 98q64 0 109.5 -52t45.5 -116q0 -112 -143 -160
q-69 -28 -160.5 -65.5t-164.5 -63.5t-109 -26q-49 0 -49 37v4q4 30 53 82z" />
    <glyph glyph-name="Thorn" unicode="&#xde;" horiz-adv-x="1982" 
d="M983 2302q290 25 410 25q300 0 485.5 -177t185.5 -471q0 -189 -84 -365.5t-234 -298.5t-337 -159q-86 -16 -258 -16q-250 0 -250 57q0 8 4 12q5 21 58 21q28 0 87 -4t89 -4q170 0 307 96t218.5 249.5t92.5 321.5q0 166 -76.5 304.5t-211 220t-302.5 90.5
q-104 0 -149.5 -38t-55.5 -84.5t-32 -205.5l-176 -1458q-9 -83 -9 -119q0 -179 213 -213q27 -4 55.5 -8t50 -15.5t21.5 -37.5q-8 -37 -102 -37q-60 0 -179 10t-177 10q-60 0 -177 -10t-176 -10q-73 0 -73 41v4q3 21 70 42.5t120 80.5t72 213l237 1945q9 74 9 119
q0 118 -58.5 157t-151.5 59.5t-93 53.5v4q5 37 61 37q60 0 179 -10t177 -10q59 0 178 10t179 10q73 0 73 -37v-4q-5 -28 -41 -37q-97 -23 -140.5 -64.5t-55 -92t-33.5 -207.5z" />
    <glyph glyph-name="germandbls" unicode="&#xdf;" horiz-adv-x="2019" 
d="M1380 1778q286 -38 432 -175t146 -423q0 -174 -96 -383.5t-257.5 -399.5t-350 -308t-365.5 -118q-81 0 -114 31.5t-42 108.5q-3 15 -22 78t-19 102q0 78 49 78q33 0 61.5 -17.5t79.5 -56t95.5 -58.5t95.5 -20q156 0 293 133.5t223 324.5t94 337q0 147 -55.5 280
t-164.5 215t-259 82q-32 0 -63 -7t-71 -18.5t-62 -15.5q-50 0 -50 49q5 53 91 86q114 48 261.5 162t252 251t104.5 251q0 139 -103.5 227t-248.5 88q-188 0 -297.5 -165t-153.5 -367.5t-73 -454.5l-152 -1237q-18 -181 -36.5 -353t-63.5 -326.5t-138 -258.5
q-161 -184 -335 -184q-115 0 -115 82q0 53 28 157t66 109h4q24 0 47 -68t38 -94t63 -26q74 0 110 172q59 340 90 717l135 1110h-290q-66 0 -66 53q0 82 86 82h287q50 307 136 561.5t263 434t457 179.5q210 0 366.5 -76.5t170.5 -263.5q0 -108 -53 -202.5t-133 -171.5
t-194 -160.5t-182 -132.5z" />
    <glyph glyph-name="agrave" unicode="&#xe0;" horiz-adv-x="1843" 
d="M1163 426q-348 -455 -712 -455q-164 0 -248 124.5t-84 297.5q0 175 75.5 390.5t208 406.5t307 311.5t367.5 120.5q38 0 72.5 -7t70 -16.5t80.5 -19.5t80 -10q53 3 140 139q36 66 73 66q13 -16 13 -13q4 -8 4 -24q0 -25 -4 -37q-66 -197 -129.5 -618.5t-63.5 -643.5
q0 -183 62 -196q119 0 213 209q33 65 61 65h4q29 -7 29 -33q0 -84 -69.5 -203.5t-171 -205.5t-189.5 -86q-70 0 -108.5 77.5t-55.5 191.5t-25 169zM1315 1409q-3 58 -71 90.5t-138 36.5q-211 0 -379.5 -176t-261 -430t-92.5 -459q0 -133 69.5 -216t196.5 -83t247.5 87.5
t202.5 221t99 256.5q8 67 53 263t59.5 267.5t14.5 141.5zM1000 2290l270 -328q37 -46 37 -70q0 -41 -33 -41q-43 0 -121 32t-150 69.5t-147 75.5q-151 70 -151 172q0 67 44 115t111 48q74 0 140 -73z" />
    <glyph glyph-name="aacute" unicode="&#xe1;" horiz-adv-x="1843" 
d="M1163 426q-348 -455 -712 -455q-164 0 -248 124.5t-84 297.5q0 175 75.5 390.5t208 406.5t307 311.5t367.5 120.5q38 0 72.5 -7t70 -16.5t80.5 -19.5t80 -10q53 3 140 139q36 66 73 66q13 -16 13 -13q4 -8 4 -24q0 -25 -4 -37q-66 -197 -129.5 -618.5t-63.5 -643.5
q0 -183 62 -196q119 0 213 209q33 65 61 65h4q29 -7 29 -33q0 -84 -69.5 -203.5t-171 -205.5t-189.5 -86q-70 0 -108.5 77.5t-55.5 191.5t-25 169zM1315 1409q-3 58 -71 90.5t-138 36.5q-211 0 -379.5 -176t-261 -430t-92.5 -459q0 -133 69.5 -216t196.5 -83t247.5 87.5
t202.5 221t99 256.5q8 67 53 263t59.5 267.5t14.5 141.5zM1077 1987l254 262q98 98 164 98q64 0 109.5 -52t45.5 -116q0 -112 -143 -160q-69 -28 -160.5 -65.5t-164.5 -63.5t-109 -26q-49 0 -49 37v4q4 30 53 82z" />
    <glyph glyph-name="acircumflex" unicode="&#xe2;" horiz-adv-x="1843" 
d="M1163 426q-348 -455 -712 -455q-164 0 -248 124.5t-84 297.5q0 175 75.5 390.5t208 406.5t307 311.5t367.5 120.5q38 0 72.5 -7t70 -16.5t80.5 -19.5t80 -10q53 3 140 139q36 66 73 66q13 -16 13 -13q4 -8 4 -24q0 -25 -4 -37q-66 -197 -129.5 -618.5t-63.5 -643.5
q0 -183 62 -196q119 0 213 209q33 65 61 65h4q29 -7 29 -33q0 -84 -69.5 -203.5t-171 -205.5t-189.5 -86q-70 0 -108.5 77.5t-55.5 191.5t-25 169zM1315 1409q-3 58 -71 90.5t-138 36.5q-211 0 -379.5 -176t-261 -430t-92.5 -459q0 -133 69.5 -216t196.5 -83t247.5 87.5
t202.5 221t99 256.5q8 67 53 263t59.5 267.5t14.5 141.5zM1266 2359l328 -434q8 -8 16 -33q0 -28 -29 -28h-4q-20 0 -86 39.5t-154 98.5t-116 75l-496 -205q-24 -8 -41 -8q-41 0 -41 32q0 3 2 7t2 6q13 17 29 28z" />
    <glyph glyph-name="atilde" unicode="&#xe3;" horiz-adv-x="1843" 
d="M1163 426q-348 -455 -712 -455q-164 0 -248 124.5t-84 297.5q0 175 75.5 390.5t208 406.5t307 311.5t367.5 120.5q38 0 72.5 -7t70 -16.5t80.5 -19.5t80 -10q53 3 140 139q36 66 73 66q13 -16 13 -13q4 -8 4 -24q0 -25 -4 -37q-66 -197 -129.5 -618.5t-63.5 -643.5
q0 -183 62 -196q119 0 213 209q33 65 61 65h4q29 -7 29 -33q0 -84 -69.5 -203.5t-171 -205.5t-189.5 -86q-70 0 -108.5 77.5t-55.5 191.5t-25 169zM1315 1409q-3 58 -71 90.5t-138 36.5q-211 0 -379.5 -176t-261 -430t-92.5 -459q0 -133 69.5 -216t196.5 -83t247.5 87.5
t202.5 221t99 256.5q8 67 53 263t59.5 267.5t14.5 141.5zM1052 2253q64 0 173 -53.5t171 -53.5q92 0 181 74q46 49 69 49q25 0 25 -32q0 -66 -60 -141t-146 -127t-155 -52q-56 0 -117 30t-122 59.5t-117 29.5q-52 0 -77.5 -19.5t-65.5 -59.5t-66 -40q-33 0 -33 29v4
q0 88 126.5 192t213.5 111z" />
    <glyph glyph-name="adieresis" unicode="&#xe4;" horiz-adv-x="1843" 
d="M1163 426q-348 -455 -712 -455q-164 0 -248 124.5t-84 297.5q0 175 75.5 390.5t208 406.5t307 311.5t367.5 120.5q38 0 72.5 -7t70 -16.5t80.5 -19.5t80 -10q53 3 140 139q36 66 73 66q13 -16 13 -13q4 -8 4 -24q0 -25 -4 -37q-66 -197 -129.5 -618.5t-63.5 -643.5
q0 -183 62 -196q119 0 213 209q33 65 61 65h4q29 -7 29 -33q0 -84 -69.5 -203.5t-171 -205.5t-189.5 -86q-70 0 -108.5 77.5t-55.5 191.5t-25 169zM1315 1409q-3 58 -71 90.5t-138 36.5q-211 0 -379.5 -176t-261 -430t-92.5 -459q0 -133 69.5 -216t196.5 -83t247.5 87.5
t202.5 221t99 256.5q8 67 53 263t59.5 267.5t14.5 141.5zM1011 2085q0 -17 -28 -45q-8 -8 -39.5 -48.5t-62 -72t-50.5 -31.5h-4q-33 9 -58.5 61.5t-51.5 106.5q-21 19 -21 41q0 18 10 34.5t28.5 34.5t35.5 34q7 7 29 37t39.5 47.5t33.5 17.5q14 -3 37 -37q53 -107 77.5 -133
t24.5 -47zM1663 2085q0 -16 -29 -45q-8 -7 -65 -79.5t-86 -72.5h-5q-17 3 -74 90.5t-57 118.5q0 24 27 52.5t51 50.5q16 21 31.5 43.5t35 40.5t36.5 18q16 -8 75.5 -91.5t59.5 -125.5z" />
    <glyph glyph-name="aring" unicode="&#xe5;" horiz-adv-x="1843" 
d="M1163 426q-348 -455 -712 -455q-164 0 -248 124.5t-84 297.5q0 175 75.5 390.5t208 406.5t307 311.5t367.5 120.5q38 0 72.5 -7t70 -16.5t80.5 -19.5t80 -10q53 3 140 139q36 66 73 66q13 -16 13 -13q4 -8 4 -24q0 -25 -4 -37q-66 -197 -129.5 -618.5t-63.5 -643.5
q0 -183 62 -196q119 0 213 209q33 65 61 65h4q29 -7 29 -33q0 -84 -69.5 -203.5t-171 -205.5t-189.5 -86q-70 0 -108.5 77.5t-55.5 191.5t-25 169zM1315 1409q-3 58 -71 90.5t-138 36.5q-211 0 -379.5 -176t-261 -430t-92.5 -459q0 -133 69.5 -216t196.5 -83t247.5 87.5
t202.5 221t99 256.5q8 67 53 263t59.5 267.5t14.5 141.5zM799 2081q0 136 113 215.5t255 79.5q139 0 252 -80.5t113 -214.5q0 -133 -114 -214t-251 -81q-141 0 -254.5 80t-113.5 215zM971 2081q0 -82 56 -139.5t136 -57.5q83 0 140 56t57 141q0 84 -56 140t-141 56
q-82 0 -137 -57.5t-55 -138.5z" />
    <glyph glyph-name="ae" unicode="&#xe6;" horiz-adv-x="2449" 
d="M1401 844q-5 -33 -13 -83t-8 -85q0 -127 57.5 -244t162 -188.5t235.5 -71.5q247 0 381 123q65 65 90 65q33 0 33 -41q-8 -93 -124.5 -173t-268.5 -127.5t-254 -47.5q-214 0 -344.5 105.5t-200.5 308.5q-154 -204 -316.5 -309t-392.5 -105q-146 0 -255 83.5t-109 228.5
q0 177 131 286.5t298 160t381 93.5t255 70q20 16 30 42t18 63t13 55q45 156 45 225q0 100 -55 179t-150 79q-39 0 -99.5 -23.5t-96.5 -50.5q-39 -26 -86 -113.5t-77.5 -128t-94.5 -44.5q-48 0 -88 26.5t-43 71.5q0 114 103.5 193.5t246.5 117t252 37.5q115 0 215.5 -63
t169.5 -162q269 241 545 241q142 0 257 -77.5t115 -212.5q0 -142 -99 -235t-245.5 -144t-330.5 -80.5t-283 -44.5zM1139 803q-117 -27 -246.5 -57t-252.5 -78.5t-205.5 -130.5t-82.5 -201q0 -92 75 -154.5t167 -62.5q239 0 358 193.5t187 490.5zM1417 922q648 115 680 434
q0 72 -40.5 119t-114.5 53q-361 0 -525 -606z" />
    <glyph glyph-name="ccedilla" unicode="&#xe7;" horiz-adv-x="1462" 
d="M733 -20l-65 -250q106 -13 186 -75.5t80 -162.5q0 -107 -87 -170t-196 -63q-49 0 -124.5 29t-136 76.5t-66.5 98.5q0 21 20 21h4q8 0 95 -51.5t143 -55.5q51 0 94.5 33.5t52.5 85.5q0 124 -151 176l82 303q-171 0 -289.5 86.5t-175 231t-56.5 313.5q0 231 108 473
t301 400.5t431 158.5q129 0 267.5 -60.5t138.5 -172.5q0 -52 -31.5 -92.5t-79.5 -46.5q-52 0 -90 29.5t-98 94.5t-107 97.5t-111 32.5q-180 0 -289 -131.5t-153.5 -317t-44.5 -358.5q0 -218 106.5 -371t315.5 -166q246 0 467 201q16 16 33 16q24 0 24 -24q0 -48 -66 -120.5
t-126 -117.5q-165 -125 -406 -151z" />
    <glyph glyph-name="egrave" unicode="&#xe8;" horiz-adv-x="1421" 
d="M369 791q-9 -56 -9 -82q0 -219 127.5 -380t339.5 -161q243 0 398 147q32 45 57 45q29 0 29 -36q-4 -91 -120 -172.5t-272 -131t-260 -49.5q-231 0 -379.5 150t-148.5 387q0 234 109.5 500.5t306 448t440.5 181.5q80 0 160 -34.5t130 -99.5t50 -148q0 -199 -158.5 -327
t-379 -183t-420.5 -55zM377 864q154 0 321 51.5t281.5 161t114.5 271.5q0 81 -49 132.5t-132 51.5q-214 0 -348.5 -208t-187.5 -460zM922 2290l270 -328q37 -46 37 -70q0 -41 -33 -41q-43 0 -121 32t-150 69.5t-147 75.5q-151 70 -151 172q0 67 44 115t111 48q74 0 140 -73z
" />
    <glyph glyph-name="eacute" unicode="&#xe9;" horiz-adv-x="1421" 
d="M369 791q-9 -56 -9 -82q0 -219 127.5 -380t339.5 -161q243 0 398 147q32 45 57 45q29 0 29 -36q-4 -91 -120 -172.5t-272 -131t-260 -49.5q-231 0 -379.5 150t-148.5 387q0 234 109.5 500.5t306 448t440.5 181.5q80 0 160 -34.5t130 -99.5t50 -148q0 -199 -158.5 -327
t-379 -183t-420.5 -55zM377 864q154 0 321 51.5t281.5 161t114.5 271.5q0 81 -49 132.5t-132 51.5q-214 0 -348.5 -208t-187.5 -460zM836 1987l254 262q98 98 164 98q64 0 109.5 -52t45.5 -116q0 -112 -143 -160q-69 -28 -160.5 -65.5t-164.5 -63.5t-109 -26q-49 0 -49 37v4
q4 30 53 82z" />
    <glyph glyph-name="ecircumflex" unicode="&#xea;" horiz-adv-x="1421" 
d="M369 791q-9 -56 -9 -82q0 -219 127.5 -380t339.5 -161q243 0 398 147q32 45 57 45q29 0 29 -36q-4 -91 -120 -172.5t-272 -131t-260 -49.5q-231 0 -379.5 150t-148.5 387q0 234 109.5 500.5t306 448t440.5 181.5q80 0 160 -34.5t130 -99.5t50 -148q0 -199 -158.5 -327
t-379 -183t-420.5 -55zM377 864q154 0 321 51.5t281.5 161t114.5 271.5q0 81 -49 132.5t-132 51.5q-214 0 -348.5 -208t-187.5 -460zM1135 2359l328 -434q8 -8 16 -33q0 -28 -29 -28h-4q-20 0 -86 39.5t-154 98.5t-116 75l-496 -205q-24 -8 -41 -8q-41 0 -41 32q0 3 2 7t2 6
q13 17 29 28z" />
    <glyph glyph-name="edieresis" unicode="&#xeb;" horiz-adv-x="1421" 
d="M369 791q-9 -56 -9 -82q0 -219 127.5 -380t339.5 -161q243 0 398 147q32 45 57 45q29 0 29 -36q-4 -91 -120 -172.5t-272 -131t-260 -49.5q-231 0 -379.5 150t-148.5 387q0 234 109.5 500.5t306 448t440.5 181.5q80 0 160 -34.5t130 -99.5t50 -148q0 -199 -158.5 -327
t-379 -183t-420.5 -55zM377 864q154 0 321 51.5t281.5 161t114.5 271.5q0 81 -49 132.5t-132 51.5q-214 0 -348.5 -208t-187.5 -460zM786 2085q0 -17 -28 -45q-8 -8 -39.5 -48.5t-62 -72t-50.5 -31.5h-4q-33 9 -58.5 61.5t-51.5 106.5q-21 19 -21 41q0 18 10 34.5t28.5 34.5
t35.5 34q7 7 29 37t39.5 47.5t33.5 17.5q14 -3 37 -37q53 -107 77.5 -133t24.5 -47zM1438 2085q0 -16 -29 -45q-8 -7 -65 -79.5t-86 -72.5h-5q-17 3 -74 90.5t-57 118.5q0 24 27 52.5t51 50.5q16 21 31.5 43.5t35 40.5t36.5 18q16 -8 75.5 -91.5t59.5 -125.5z" />
    <glyph glyph-name="igrave" unicode="&#xec;" horiz-adv-x="1008" 
d="M426 823l82 496q4 24 12 82q0 94 -119 94h-127q-69 0 -69 37v4q10 45 86 45q80 2 253.5 23.5t205.5 21.5q45 0 45 -49q0 -4 -2 -10t-2 -11l-111 -552q-86 -384 -86 -623q0 -123 61 -123q94 0 181 164q20 49 49 49q28 -6 28 -41q-6 -88 -73 -192.5t-165 -177t-188 -72.5
q-122 18 -122 344q0 146 61 491zM529 2294l270 -328q37 -46 37 -70q0 -41 -33 -41q-43 0 -121 32t-150 69.5t-147 75.5q-151 70 -151 172q0 67 44 115t111 48q74 0 140 -73z" />
    <glyph glyph-name="iacute" unicode="&#xed;" horiz-adv-x="999" 
d="M426 823l82 496q4 24 12 82q0 94 -119 94h-127q-69 0 -69 37v4q10 45 86 45q80 2 253.5 23.5t205.5 21.5q45 0 45 -49q0 -4 -2 -10t-2 -11l-111 -552q-86 -384 -86 -623q0 -123 61 -123q94 0 181 164q20 49 49 49q28 -6 28 -41q-6 -88 -73 -192.5t-165 -177t-188 -72.5
q-122 18 -122 344q0 146 61 491zM496 1991l254 262q98 98 164 98q64 0 109.5 -52t45.5 -116q0 -112 -143 -160q-69 -28 -160.5 -65.5t-164.5 -63.5t-109 -26q-49 0 -49 37v4q4 30 53 82z" />
    <glyph glyph-name="icircumflex" unicode="&#xee;" horiz-adv-x="991" 
d="M426 823l82 496q4 24 12 82q0 94 -119 94h-127q-69 0 -69 37v4q10 45 86 45q80 2 253.5 23.5t205.5 21.5q45 0 45 -49q0 -4 -2 -10t-2 -11l-111 -552q-86 -384 -86 -623q0 -123 61 -123q94 0 181 164q20 49 49 49q28 -6 28 -41q-6 -88 -73 -192.5t-165 -177t-188 -72.5
q-122 18 -122 344q0 146 61 491zM737 2359l328 -434q8 -8 16 -33q0 -28 -29 -28h-4q-20 0 -86 39.5t-154 98.5t-116 75l-496 -205q-24 -8 -41 -8q-41 0 -41 32q0 3 2 7t2 6q13 17 29 28z" />
    <glyph glyph-name="idieresis" unicode="&#xef;" horiz-adv-x="1008" 
d="M426 823l82 496q4 24 12 82q0 94 -119 94h-127q-69 0 -69 37v4q10 45 86 45q80 2 253.5 23.5t205.5 21.5q45 0 45 -49q0 -4 -2 -10t-2 -11l-111 -552q-86 -384 -86 -623q0 -123 61 -123q94 0 181 164q20 49 49 49q28 -6 28 -41q-6 -88 -73 -192.5t-165 -177t-188 -72.5
q-122 18 -122 344q0 146 61 491zM507 2085q0 -17 -28 -45q-8 -8 -39.5 -48.5t-62 -72t-50.5 -31.5h-4q-33 9 -58.5 61.5t-51.5 106.5q-21 19 -21 41q0 18 10 34.5t28.5 34.5t35.5 34q7 7 29 37t39.5 47.5t33.5 17.5q14 -3 37 -37q53 -107 77.5 -133t24.5 -47zM1159 2085
q0 -16 -29 -45q-8 -7 -65 -79.5t-86 -72.5h-5q-17 3 -74 90.5t-57 118.5q0 24 27 52.5t51 50.5q16 21 31.5 43.5t35 40.5t36.5 18q16 -8 75.5 -91.5t59.5 -125.5z" />
    <glyph glyph-name="eth" unicode="&#xf0;" horiz-adv-x="1622" 
d="M1012 2548l430 237q54 29 78 29q45 0 53 -45q0 -44 -78 -82l-393 -213q219 -226 341 -544t122 -644q0 -504 -186.5 -909.5t-633.5 -405.5q-282 0 -433.5 193t-151.5 483q0 175 53.5 348.5t157.5 320t252 232.5t331 86q223 0 349 -204q-33 539 -345 954l-405 -225
q-56 -29 -78 -29q-57 0 -57 45q0 35 74 78l393 217q-140 161 -414 278q-52 16 -57 54q0 49 41 49q88 0 275.5 -110.5t281.5 -192.5zM1270 1073q0 168 -73 315.5t-222 147.5q-191 0 -315.5 -142.5t-179 -350.5t-54.5 -404q0 -220 76 -390.5t264 -170.5q186 0 300 172t159 402
t45 421z" />
    <glyph glyph-name="ntilde" unicode="&#xf1;" horiz-adv-x="1991" 
d="M700 1229q127 165 291.5 281t339.5 116q157 0 224 -150t67 -329q0 -43 -5 -129t-7 -129l-41 -520q-4 -17 -4 -50q0 -90 61 -90q90 0 189 131q37 58 65 62h8q33 0 33 -37q0 -74 -76 -168.5t-182 -163.5t-184 -69q-148 0 -148 262q0 56 8 164l50 614q4 25 4 78
q0 323 -185 352q-235 0 -348 -234t-147 -528l-74 -606q-6 -58 -34 -78t-93 -20q-106 0 -106 61v37l65 516q16 130 28.5 226.5t20.5 184.5t8 175q0 144 -73 160q-68 0 -91 -34t-58 -115t-68 -81q-37 0 -45 45q0 76 53 186.5t133 189.5t158 79q82 0 122.5 -87t40.5 -183v-119z
M1052 2253q64 0 173 -53.5t171 -53.5q92 0 181 74q46 49 69 49q25 0 25 -32q0 -66 -60 -141t-146 -127t-155 -52q-56 0 -117 30t-122 59.5t-117 29.5q-52 0 -77.5 -19.5t-65.5 -59.5t-66 -40q-33 0 -33 29v4q0 88 126.5 192t213.5 111z" />
    <glyph glyph-name="ograve" unicode="&#xf2;" horiz-adv-x="1602" 
d="M1528 1040q0 -489 -234 -778q-102 -129 -252.5 -210t-304.5 -81q-282 0 -436 194t-154 482q0 236 96.5 465.5t279.5 377.5t423 148q164 0 297.5 -79t209 -215.5t75.5 -303.5zM1262 1077q0 168 -74 315.5t-225 147.5q-192 0 -315.5 -145.5t-176.5 -354.5t-53 -409
q0 -213 77 -381t263 -168q270 0 387 332.5t117 662.5zM824 2290l270 -328q37 -46 37 -70q0 -41 -33 -41q-43 0 -121 32t-150 69.5t-147 75.5q-151 70 -151 172q0 67 44 115t111 48q74 0 140 -73z" />
    <glyph glyph-name="oacute" unicode="&#xf3;" horiz-adv-x="1602" 
d="M1528 1040q0 -489 -234 -778q-102 -129 -252.5 -210t-304.5 -81q-282 0 -436 194t-154 482q0 236 96.5 465.5t279.5 377.5t423 148q164 0 297.5 -79t209 -215.5t75.5 -303.5zM1262 1077q0 168 -74 315.5t-225 147.5q-192 0 -315.5 -145.5t-176.5 -354.5t-53 -409
q0 -213 77 -381t263 -168q270 0 387 332.5t117 662.5zM844 1987l254 262q98 98 164 98q64 0 109.5 -52t45.5 -116q0 -112 -143 -160q-69 -28 -160.5 -65.5t-164.5 -63.5t-109 -26q-49 0 -49 37v4q4 30 53 82z" />
    <glyph glyph-name="ocircumflex" unicode="&#xf4;" horiz-adv-x="1602" 
d="M1528 1040q0 -489 -234 -778q-102 -129 -252.5 -210t-304.5 -81q-282 0 -436 194t-154 482q0 236 96.5 465.5t279.5 377.5t423 148q164 0 297.5 -79t209 -215.5t75.5 -303.5zM1262 1077q0 168 -74 315.5t-225 147.5q-192 0 -315.5 -145.5t-176.5 -354.5t-53 -409
q0 -213 77 -381t263 -168q270 0 387 332.5t117 662.5zM1086 2359l328 -434q8 -8 16 -33q0 -28 -29 -28h-4q-20 0 -86 39.5t-154 98.5t-116 75l-496 -205q-24 -8 -41 -8q-41 0 -41 32q0 3 2 7t2 6q13 17 29 28z" />
    <glyph glyph-name="otilde" unicode="&#xf5;" horiz-adv-x="1602" 
d="M1528 1040q0 -489 -234 -778q-102 -129 -252.5 -210t-304.5 -81q-282 0 -436 194t-154 482q0 236 96.5 465.5t279.5 377.5t423 148q164 0 297.5 -79t209 -215.5t75.5 -303.5zM1262 1077q0 168 -74 315.5t-225 147.5q-192 0 -315.5 -145.5t-176.5 -354.5t-53 -409
q0 -213 77 -381t263 -168q270 0 387 332.5t117 662.5zM905 2253q64 0 173 -53.5t171 -53.5q92 0 181 74q46 49 69 49q25 0 25 -32q0 -66 -60 -141t-146 -127t-155 -52q-56 0 -117 30t-122 59.5t-117 29.5q-52 0 -77.5 -19.5t-65.5 -59.5t-66 -40q-33 0 -33 29v4
q0 88 126.5 192t213.5 111z" />
    <glyph glyph-name="odieresis" unicode="&#xf6;" horiz-adv-x="1602" 
d="M1528 1040q0 -489 -234 -778q-102 -129 -252.5 -210t-304.5 -81q-282 0 -436 194t-154 482q0 236 96.5 465.5t279.5 377.5t423 148q164 0 297.5 -79t209 -215.5t75.5 -303.5zM1262 1077q0 168 -74 315.5t-225 147.5q-192 0 -315.5 -145.5t-176.5 -354.5t-53 -409
q0 -213 77 -381t263 -168q270 0 387 332.5t117 662.5zM823 2085q0 -17 -28 -45q-8 -8 -39.5 -48.5t-62 -72t-50.5 -31.5h-4q-33 9 -58.5 61.5t-51.5 106.5q-21 19 -21 41q0 18 10 34.5t28.5 34.5t35.5 34q7 7 29 37t39.5 47.5t33.5 17.5q14 -3 37 -37q53 -107 77.5 -133
t24.5 -47zM1475 2085q0 -16 -29 -45q-8 -7 -65 -79.5t-86 -72.5h-5q-17 3 -74 90.5t-57 118.5q0 24 27 52.5t51 50.5q16 21 31.5 43.5t35 40.5t36.5 18q16 -8 75.5 -91.5t59.5 -125.5z" />
    <glyph glyph-name="divide" unicode="&#xf7;" 
d="M193 1470h1851v-159h-1851v159zM1118 2302q65 0 108.5 -45t43.5 -111q0 -63 -45 -107t-107 -44q-63 0 -109 44.5t-46 106.5q0 65 44.5 110.5t110.5 45.5zM1118 782q62 0 107 -44t45 -107q0 -65 -45.5 -110.5t-106.5 -45.5q-64 0 -109.5 45.5t-45.5 110.5q0 63 45 107
t110 44z" />
    <glyph glyph-name="oslash" unicode="&#xf8;" horiz-adv-x="1602" 
d="M360 115q-35 -46 -63 -84.5t-56.5 -70t-60.5 -46.5q-2 0 -6 -2t-6 -2q-22 0 -44 21t-22 44q0 36 28 76t81 92.5t63 65.5q-118 180 -118 442q0 230 97.5 460.5t280 378.5t420.5 148q222 0 385 -139l140 172q21 21 37 25q4 4 20 4q25 0 43 -20.5t18 -45.5v-4
q-6 -28 -37 -68.5t-76.5 -88.5t-62.5 -68q115 -166 115 -361q0 -249 -87 -497.5t-266 -412t-438 -163.5q-223 0 -385 144zM492 274q89 -192 274 -192q188 0 301.5 172t158 402.5t44.5 420.5q0 46 -17 123zM446 418l771 934q-96 188 -242 188q-195 0 -318.5 -145.5
t-177 -354.5t-53.5 -409q0 -98 20 -213z" />
    <glyph glyph-name="ugrave" unicode="&#xf9;" horiz-adv-x="1995" 
d="M1339 819q-526 -819 -847 -819q-148 0 -148 258q0 130 49 389l82 414q29 167 29 221q0 74 -45 74h-4q-56 0 -81 -38t-72.5 -129t-76.5 -91q-41 0 -41 41q0 106 54.5 220.5t148 192.5t199.5 78q86 0 125 -78.5t39 -175.5q0 -62 -13 -135l-110 -688q-33 -136 -33 -229
q0 -99 53 -99q173 0 520 525q226 344 332 745q34 115 107 115q109 0 114 -66q0 -45 -4 -65l-102 -463q-98 -490 -98 -664q0 -91 61 -106q143 0 258 221q29 49 57 49h4q33 -6 33 -49q0 -101 -86.5 -213t-212 -189t-225.5 -77q-135 0 -135 221q0 123 31.5 334t37.5 276z
M1020 2294l270 -328q37 -46 37 -70q0 -41 -33 -41q-43 0 -121 32t-150 69.5t-147 75.5q-151 70 -151 172q0 67 44 115t111 48q74 0 140 -73z" />
    <glyph glyph-name="uacute" unicode="&#xfa;" horiz-adv-x="1995" 
d="M1339 819q-526 -819 -847 -819q-148 0 -148 258q0 130 49 389l82 414q29 167 29 221q0 74 -45 74h-4q-56 0 -81 -38t-72.5 -129t-76.5 -91q-41 0 -41 41q0 106 54.5 220.5t148 192.5t199.5 78q86 0 125 -78.5t39 -175.5q0 -62 -13 -135l-110 -688q-33 -136 -33 -229
q0 -99 53 -99q173 0 520 525q226 344 332 745q34 115 107 115q109 0 114 -66q0 -45 -4 -65l-102 -463q-98 -490 -98 -664q0 -91 61 -106q143 0 258 221q29 49 57 49h4q33 -6 33 -49q0 -101 -86.5 -213t-212 -189t-225.5 -77q-135 0 -135 221q0 123 31.5 334t37.5 276z
M1040 1991l254 262q98 98 164 98q64 0 109.5 -52t45.5 -116q0 -112 -143 -160q-69 -28 -160.5 -65.5t-164.5 -63.5t-109 -26q-49 0 -49 37v4q4 30 53 82z" />
    <glyph glyph-name="ucircumflex" unicode="&#xfb;" horiz-adv-x="1995" 
d="M1339 819q-526 -819 -847 -819q-148 0 -148 258q0 130 49 389l82 414q29 167 29 221q0 74 -45 74h-4q-56 0 -81 -38t-72.5 -129t-76.5 -91q-41 0 -41 41q0 106 54.5 220.5t148 192.5t199.5 78q86 0 125 -78.5t39 -175.5q0 -62 -13 -135l-110 -688q-33 -136 -33 -229
q0 -99 53 -99q173 0 520 525q226 344 332 745q34 115 107 115q109 0 114 -66q0 -45 -4 -65l-102 -463q-98 -490 -98 -664q0 -91 61 -106q143 0 258 221q29 49 57 49h4q33 -6 33 -49q0 -101 -86.5 -213t-212 -189t-225.5 -77q-135 0 -135 221q0 123 31.5 334t37.5 276z
M1286 2359l328 -434q8 -8 16 -33q0 -28 -29 -28h-4q-20 0 -86 39.5t-154 98.5t-116 75l-496 -205q-24 -8 -41 -8q-41 0 -41 32q0 3 2 7t2 6q13 17 29 28z" />
    <glyph glyph-name="udieresis" unicode="&#xfc;" horiz-adv-x="1995" 
d="M1339 819q-526 -819 -847 -819q-148 0 -148 258q0 130 49 389l82 414q29 167 29 221q0 74 -45 74h-4q-56 0 -81 -38t-72.5 -129t-76.5 -91q-41 0 -41 41q0 106 54.5 220.5t148 192.5t199.5 78q86 0 125 -78.5t39 -175.5q0 -62 -13 -135l-110 -688q-33 -136 -33 -229
q0 -99 53 -99q173 0 520 525q226 344 332 745q34 115 107 115q109 0 114 -66q0 -45 -4 -65l-102 -463q-98 -490 -98 -664q0 -91 61 -106q143 0 258 221q29 49 57 49h4q33 -6 33 -49q0 -101 -86.5 -213t-212 -189t-225.5 -77q-135 0 -135 221q0 123 31.5 334t37.5 276z
M1019 2085q0 -17 -28 -45q-8 -8 -39.5 -48.5t-62 -72t-50.5 -31.5h-4q-33 9 -58.5 61.5t-51.5 106.5q-21 19 -21 41q0 18 10 34.5t28.5 34.5t35.5 34q7 7 29 37t39.5 47.5t33.5 17.5q14 -3 37 -37q53 -107 77.5 -133t24.5 -47zM1671 2085q0 -16 -29 -45q-8 -7 -65 -79.5
t-86 -72.5h-5q-17 3 -74 90.5t-57 118.5q0 24 27 52.5t51 50.5q16 21 31.5 43.5t35 40.5t36.5 18q16 -8 75.5 -91.5t59.5 -125.5z" />
    <glyph glyph-name="yacute" unicode="&#xfd;" horiz-adv-x="1442" 
d="M1114 512q123 397 123 655q0 56 -11 99t-26.5 81t-32 84t-16.5 80q0 43 30 79t72 36q83 0 115.5 -78.5t32.5 -175.5q0 -75 -49 -364q-68 -347 -184 -723t-317.5 -678.5t-469.5 -302.5q-90 0 -170 55.5t-80 140.5q0 48 25 83.5t69 35.5q37 0 70 -14.5t79.5 -43.5t73 -41
t60.5 -12q101 0 206.5 110t178 259t78.5 246q0 116 -106.5 420t-250 548t-254.5 244q-83 0 -113 -51t-54 -137t-54 -86q-37 0 -37 86q0 155 69 303.5t202 159.5q125 0 241.5 -122t205.5 -291t170.5 -373.5t123.5 -311.5zM762 1991l254 262q98 98 164 98q64 0 109.5 -52
t45.5 -116q0 -112 -143 -160q-69 -28 -160.5 -65.5t-164.5 -63.5t-109 -26q-49 0 -49 37v4q4 30 53 82z" />
    <glyph glyph-name="thorn" unicode="&#xfe;" horiz-adv-x="1794" 
d="M758 1597q190 33 295 33q173 0 327.5 -61t251.5 -184.5t97 -299.5q0 -260 -131.5 -510t-358 -406.5t-489.5 -156.5q-22 0 -65 6.5t-71 6.5q-38 0 -47 -23.5t-14 -71.5q-41 -315 -41 -368q0 -96 62 -120.5t196 -39.5q57 -9 57 -41q0 -57 -61 -57q-56 0 -164 10t-164 10
q-123 0 -184 -8q-13 -2 -44 -5t-46 -7q-80 0 -90 49q0 46 53 53q102 23 123 67.5t37 178.5l221 1790q-20 -5 -116.5 -45.5t-137.5 -40.5q-10 0 -16 12q0 45 12 57q5 14 53 33q192 75 217 82l123 995q0 26 8 82q0 95 -110 95h-123q-58 0 -58 28q0 47 78 58q232 8 336 32
q15 2 43.5 7.5t46.5 5.5q37 0 37 -50v-20zM745 1491l-147 -1200q-4 -25 -4 -74q0 -102 172 -102q214 0 371 139.5t237 350.5t80 415q0 222 -130 348.5t-353 138.5q-78 0 -226 -16z" />
    <glyph glyph-name="ydieresis" unicode="&#xff;" horiz-adv-x="1442" 
d="M1114 512q123 397 123 655q0 56 -11 99t-26.5 81t-32 84t-16.5 80q0 43 30 79t72 36q83 0 115.5 -78.5t32.5 -175.5q0 -75 -49 -364q-68 -347 -184 -723t-317.5 -678.5t-469.5 -302.5q-90 0 -170 55.5t-80 140.5q0 48 25 83.5t69 35.5q37 0 70 -14.5t79.5 -43.5t73 -41
t60.5 -12q101 0 206.5 110t178 259t78.5 246q0 116 -106.5 420t-250 548t-254.5 244q-83 0 -113 -51t-54 -137t-54 -86q-37 0 -37 86q0 155 69 303.5t202 159.5q125 0 241.5 -122t205.5 -291t170.5 -373.5t123.5 -311.5zM741 2085q0 -17 -28 -45q-8 -8 -39.5 -48.5t-62 -72
t-50.5 -31.5h-4q-33 9 -58.5 61.5t-51.5 106.5q-21 19 -21 41q0 18 10 34.5t28.5 34.5t35.5 34q7 7 29 37t39.5 47.5t33.5 17.5q14 -3 37 -37q53 -107 77.5 -133t24.5 -47zM1393 2085q0 -16 -29 -45q-8 -7 -65 -79.5t-86 -72.5h-5q-17 3 -74 90.5t-57 118.5q0 24 27 52.5
t51 50.5q16 21 31.5 43.5t35 40.5t36.5 18q16 -8 75.5 -91.5t59.5 -125.5z" />
    <glyph glyph-name="dotlessi" unicode="&#x131;" horiz-adv-x="1008" 
d="M426 823l82 496q4 24 12 82q0 94 -119 94h-127q-69 0 -69 37v4q10 45 86 45q80 2 253.5 23.5t205.5 21.5q45 0 45 -49q0 -4 -2 -10t-2 -11l-111 -552q-86 -384 -86 -623q0 -123 61 -123q94 0 181 164q20 49 49 49q28 -6 28 -41q-6 -88 -73 -192.5t-165 -177t-188 -72.5
q-122 18 -122 344q0 146 61 491z" />
    <glyph glyph-name="Lslash" unicode="&#x141;" horiz-adv-x="2142" 
d="M586 1401l114 913q9 74 9 119q0 118 -58.5 157t-151.5 59.5t-93 53.5v4q5 37 61 37q60 0 179 -10t177 -10q59 0 178 10t179 10q73 0 73 -37v-4q-5 -28 -41 -37q-98 -24 -136.5 -52t-52.5 -75.5t-32 -175.5l-94 -757l545 409q7 4 20 15t25.5 18.5t23.5 7.5
q21 0 37.5 -22.5t16.5 -42.5q0 -53 -62 -82l-626 -475l-132 -1065q0 -12 -2 -40t-2 -42q0 -123 295 -123q361 0 643 49q284 60 402 225q3 4 25.5 36.5t39.5 49t37 17.5h8q33 0 33 -41q-6 -75 -56 -182.5t-100 -170.5q-78 -102 -180 -130.5t-266 -28.5q-157 0 -475 14
t-475 14q-68 0 -202 -14t-196 -14q-73 0 -73 41v4q3 21 70 42.5t120 80.5t72 213l102 860q-34 -28 -98 -80.5t-125 -96.5t-84 -44q-24 0 -38.5 23t-14.5 46q0 34 61 78z" />
    <glyph glyph-name="lslash" unicode="&#x142;" horiz-adv-x="1081" 
d="M483 1479l131 1056q2 15 3.5 36.5t5.5 49.5q0 103 -111 103h-131q-49 0 -49 24q0 45 78 45q211 10 335 33q54 13 91 13q36 0 36 -41v-21l-139 -1139l336 254q37 37 82 37q41 -16 41 -65q0 -32 -62 -82l-417 -316l-123 -1020q-8 -64 -8 -98q0 -118 57 -127q99 0 161 65
t134 189q23 33 45 33q37 0 37 -33v-4q-4 -80 -90 -196.5t-203 -203.5t-199 -87q-172 0 -172 323q0 92 13 180l98 820q-18 -13 -79 -65t-107 -82t-80 -30q-41 18 -41 66q0 28 71 89t154 120.5t102 73.5z" />
    <glyph glyph-name="OE" unicode="&#x152;" horiz-adv-x="4014" 
d="M2679 2441l-107 -868q0 -5 -2 -16t-2 -17q0 -53 70 -53h16h557q139 0 220 56.5t116 189.5q8 49 41 49h4q33 0 33 -49q0 -105 -30.5 -294t-30.5 -288q0 -201 -62 -201q-19 0 -28.5 25.5t-12.5 66t-4 52.5q-10 221 -311 221h-475q-70 0 -101.5 -16t-38.5 -78l-106 -856
q0 -7 -2 -21t-2 -20q0 -164 241 -164q267 0 460.5 16t367.5 70q239 77 348 237q43 67 70 70q49 0 49 -41q0 -80 -65.5 -196t-160.5 -206.5t-180 -105.5q-78 -16 -241 -16q-134 0 -400 12t-399 12q-122 0 -232.5 -6.5t-323.5 -22t-287.5 -20t-197.5 -4.5q-271 0 -500 86
t-399 249.5t-262 388.5t-92 497q0 304 104 591t297 513.5t461 357.5t584 131q79 0 150.5 -6.5t160 -16.5t192 -20t185.5 -10q92 0 279 2t278 2q170 0 499.5 14.5t520.5 14.5q97 0 102 -58l-4 -196l9 -299q0 -66 -50 -66q-49 0 -49 82q-14 154 -60 227.5t-147.5 99
t-312.5 25.5q-45 0 -133 -2t-133 -2q-106 0 -328 8q-81 0 -108.5 -32t-34.5 -99zM2154 483l209 1725q0 7 2 27t2 30q0 224 -227.5 310.5t-501.5 86.5q-357 0 -606.5 -204.5t-372 -529t-122.5 -675.5q0 -295 118 -566.5t344.5 -442t528.5 -170.5q362 0 524 139
q53 45 71.5 107t30.5 163z" />
    <glyph glyph-name="oe" unicode="&#x153;" horiz-adv-x="2527" 
d="M1470 807q-8 -66 -8 -94q0 -139 55.5 -262t161 -197t250.5 -74q246 0 385 139q54 54 74 54q29 0 29 -37q0 -87 -115.5 -172.5t-268 -139t-247.5 -53.5q-154 0 -284.5 71.5t-211.5 203.5q-273 -275 -561 -275q-145 0 -254 56.5t-180 155t-107 223t-36 262.5
q0 235 102 460.5t289.5 367.5t427.5 142q171 0 305 -96t207 -256q311 352 610 352q126 0 229.5 -73t114.5 -193q0 -262 -315 -438q-239 -127 -652 -127zM1257 1036q0 189 -64.5 342.5t-225.5 153.5q-205 0 -326.5 -152.5t-168 -364.5t-46.5 -421q0 -193 78 -350.5
t250 -157.5q190 0 303 160t156.5 377t43.5 413zM1483 877q156 7 320.5 55.5t280.5 152t116 258.5q0 81 -52 135t-133 54q-213 0 -344 -199.5t-188 -455.5z" />
    <glyph glyph-name="Scaron" unicode="&#x160;" horiz-adv-x="1839" 
d="M913 1753l459 -479q311 -318 311 -647q0 -229 -133.5 -380t-340 -219.5t-431.5 -68.5q-249 0 -365 31.5t-169.5 141t-71.5 355.5q0 78 45 78q32 0 49 -53q44 -127 142 -229.5t228 -159.5t269 -57q137 0 258 56t194 162.5t73 247.5q0 127 -67 236.5t-183 230.5l-455 492
q-172 188 -262 352t-90 365q0 164 79 292t216.5 200.5t298.5 72.5q107 0 196 -23t196.5 -59.5t143.5 -36.5q20 0 54.5 22.5t56.5 22.5h4q45 0 45 -98q0 -87 18.5 -237t22.5 -230q0 -65 -45 -70h-4q-46 0 -74 95q-57 206 -222.5 353t-375.5 159q-153 0 -256.5 -97.5
t-103.5 -251.5q0 -269 290 -569zM1000 2949l-328 434q-12 13 -12 33v4q0 29 28 29q52 -16 109 -50.5t135 -88.5t117 -78l491 205q25 12 54 12q24 -8 24 -45q-6 -18 -28 -33z" />
    <glyph glyph-name="scaron" unicode="&#x161;" horiz-adv-x="1290" 
d="M688 1106l283 -303q135 -148 135 -348q0 -138 -79 -249.5t-206.5 -173t-263.5 -61.5q-141 0 -281.5 60.5t-140.5 181.5q0 52 31.5 89.5t83.5 37.5q70 0 115 -66.5t91 -133t117 -66.5q118 0 213 67.5t95 182.5q0 125 -68 220.5t-201.5 223t-200.5 226.5t-67 231
q0 192 132.5 302.5t326.5 110.5q356 0 356 -184q0 -53 -37 -90t-90 -37q-42 0 -71.5 25.5t-71 80t-79 83t-93.5 28.5q-73 0 -122.5 -52.5t-49.5 -127.5q0 -107 143 -258zM819 1843l-328 434q-12 13 -12 33v4q0 29 28 29q52 -16 109 -50.5t135 -88.5t117 -78l491 205
q25 12 54 12q24 -8 24 -45q-6 -18 -28 -33z" />
    <glyph glyph-name="Ydieresis" unicode="&#x178;" horiz-adv-x="2408" 
d="M1458 1069l-78 -651q-8 -74 -8 -119q0 -175 189 -213q110 -16 110 -57v-4q0 -37 -61 -37q-58 0 -173 10t-171 10q-60 0 -179 -10t-178 -10q-69 0 -69 41v4q4 33 34 39t82 20.5t89.5 77t52.5 199.5l94 745q0 13 2 39t2 39q0 71 -70 192l-467 975q-74 149 -139.5 222.5
t-187.5 76.5q-86 12 -86 45q0 41 61 41q63 0 188 -10t189 -10q63 0 192 10t193 10q66 0 66 -37v-4q0 -24 -65 -43.5t-98.5 -39t-33.5 -76.5q0 -86 66 -226l376 -827q23 -55 41 -66h4q16 0 41 37q162 214 316 463q105 160 165.5 254.5t113.5 194.5t53 149q0 118 -177 127
q-90 0 -94 49q0 45 70 45q53 0 158 -10t157 -10q54 0 162 10t162 10q48 0 53 -32v-5q0 -34 -70 -53q-86 -19 -152 -82.5t-123 -155t-106 -171.5q-42 -66 -245 -351t-319 -486t-132 -339zM1314 3191q0 -17 -28 -45q-8 -8 -39.5 -48.5t-62 -72t-50.5 -31.5h-4
q-33 9 -58.5 61.5t-51.5 106.5q-21 19 -21 41q0 18 10 34.5t28.5 34.5t35.5 34q7 7 29 37t39.5 47.5t33.5 17.5q14 -3 37 -37q53 -107 77.5 -133t24.5 -47zM1966 3191q0 -16 -29 -45q-8 -7 -65 -79.5t-86 -72.5h-5q-17 3 -74 90.5t-57 118.5q0 24 27 52.5t51 50.5
q16 21 31.5 43.5t35 40.5t36.5 18q16 -8 75.5 -91.5t59.5 -125.5z" />
    <glyph glyph-name="Zcaron" unicode="&#x17d;" horiz-adv-x="2126" 
d="M623 262h1028h49q224 0 233 107v4q0 48 -86 65q-52 11 -85 45t-33 82q0 64 49 108t114 44q88 0 134.5 -71.5t46.5 -166.5q0 -209 -238 -397q-132 -102 -397 -102q-23 0 -67 2t-64 2l-451 28q-17 0 -49 2t-49 2q-93 0 -277 -16t-276 -16q-45 0 -53 20q0 3 -2.5 8.5
t-2.5 7.5q0 19 13 39t32.5 41t28.5 31q30 30 96.5 127t186.5 279t181.5 275t105.5 155q301 428 598 888l258 394q2 4 26.5 42.5t35.5 62.5t11 50q0 37 -53 37q-125 0 -368 16.5t-381 16.5q-208 0 -387 -101t-179 -296q0 -78 17 -115t48 -54.5t58 -31.5q25 -12 25 -29v-4
q0 -23 -26.5 -34t-51.5 -11q-92 0 -130 81.5t-38 188.5q0 200 107 356t282.5 240t372.5 84q69 0 106 -4l537 -41q111 -12 221 -12q32 0 88.5 10.5t91.5 10.5q41 0 41 -37v-4q-2 -28 -102 -181l-1434 -2134q-28 -37 -28 -61v-4q5 -29 53 -29h33zM1262 2949l-328 434
q-12 13 -12 33v4q0 29 28 29q52 -16 109 -50.5t135 -88.5t117 -78l491 205q25 12 54 12q24 -8 24 -45q-6 -18 -28 -33z" />
    <glyph glyph-name="zcaron" unicode="&#x17e;" horiz-adv-x="1597" 
d="M528 377q161 -104 258.5 -204t192.5 -263q24 -41 50.5 -85t59.5 -74t74 -30t64 26t42 75t39 74.5t60 25.5h8q78 -13 78 -94q0 -88 -121 -150.5t-223 -62.5q-103 0 -191.5 69.5t-198 203.5t-179 199t-152.5 65q-36 0 -58.5 -19.5t-46.5 -58.5t-44 -60.5t-52 -25.5
q-65 0 -65 49v4q0 29 32 71t84.5 97t67.5 74l713 864q-109 19 -180.5 52.5t-225.5 113.5t-192 80q-47 0 -77.5 -37.5t-37.5 -85.5q0 -59 45 -117t45 -76q0 -12 -10.5 -24.5t-26.5 -12.5q-64 0 -109.5 98.5t-45.5 176.5q0 111 82.5 209t191.5 98q82 0 160 -30t190 -90.5
t184.5 -89t153.5 -28.5q74 0 99 86q15 69 32 104.5t62 35.5q31 0 50.5 -23t19.5 -55q0 -44 -22 -75.5t-77 -96.5zM963 1843l-328 434q-12 13 -12 33v4q0 29 28 29q52 -16 109 -50.5t135 -88.5t117 -78l491 205q25 12 54 12q24 -8 24 -45q-6 -18 -28 -33z" />
    <glyph glyph-name="florin" unicode="&#x192;" horiz-adv-x="2077" 
d="M971 1483h-279q-74 0 -74 45q0 78 119 78h258q79 310 134 496t154.5 399.5t253.5 359t355 145.5q127 0 136 -53q0 -54 -13 -106q-3 -33 -7.5 -71t-16 -67.5t-33.5 -29.5h-4q-38 18 -82 67.5t-73.5 71t-90.5 21.5q-100 0 -150 -88t-112 -261q-127 -352 -221 -884h303
q90 0 90 -50v-12q-12 -61 -119 -61h-299l-250 -1282q-30 -158 -104.5 -311t-193 -255t-275.5 -102q-94 0 -94 74v4q5 59 39.5 156.5t74.5 97.5q23 0 30 -20t16.5 -69t25 -72t51.5 -23q49 0 82.5 49t51 114.5t29 138.5t17.5 115l177 922q19 93 38.5 190.5t55.5 272.5z" />
    <glyph glyph-name="circumflex" unicode="&#x2c6;" 
d="M1319 2359l328 -434q8 -8 16 -33q0 -28 -29 -28h-4q-20 0 -86 39.5t-154 98.5t-116 75l-496 -205q-24 -8 -41 -8q-41 0 -41 32q0 3 2 7t2 6q13 17 29 28z" />
    <glyph glyph-name="caron" unicode="&#x2c7;" 
d="M1184 1843l-328 434q-12 13 -12 33v4q0 29 28 29q52 -16 109 -50.5t135 -88.5t117 -78l491 205q25 12 54 12q24 -8 24 -45q-6 -18 -28 -33z" />
    <glyph glyph-name="breve" unicode="&#x2d8;" 
d="M1171 1905q-92 0 -192.5 39.5t-169 114.5t-68.5 173q0 54 37 54q31 0 58 -25q123 -164 360 -164q218 0 381 131q67 58 98 58q29 -11 29 -25q0 -76 -85 -160.5t-212.5 -140t-235.5 -55.5z" />
    <glyph glyph-name="dotaccent" unicode="&#x2d9;" 
d="M1372 2085q0 -18 -29 -45q-29 -38 -80 -95t-71 -57h-4q-23 5 -41.5 33.5t-40 75.5t-29.5 59q-20 20 -20 41q0 19 11.5 36.5t32.5 38t28.5 28t30 37.5t40 47.5t33.5 17.5q14 -3 37 -37q32 -65 86 -139q1 -4 8.5 -18.5t7.5 -22.5z" />
    <glyph glyph-name="ring" unicode="&#x2da;" 
d="M791 2085q0 136 113 215.5t255 79.5q139 0 252 -80.5t113 -214.5q0 -133 -114 -214t-251 -81q-141 0 -254.5 80t-113.5 215zM963 2085q0 -82 56 -139.5t136 -57.5q83 0 140 56t57 141q0 84 -56 140t-141 56q-82 0 -137 -57.5t-55 -138.5z" />
    <glyph glyph-name="ogonek" unicode="&#x2db;" 
d="M1151 0q-123 -80 -196.5 -156t-73.5 -180q0 -66 54.5 -113t125.5 -47q29 0 79.5 18.5t80.5 18.5q20 0 20 -28q-16 -90 -132.5 -137.5t-231.5 -51.5q-107 0 -180.5 65.5t-73.5 172.5q0 232 385 438h143z" />
    <glyph glyph-name="tilde" unicode="&#x2dc;" 
d="M1077 2257q64 0 173 -53.5t171 -53.5q92 0 181 74q46 49 69 49q25 0 25 -32q0 -66 -60 -141t-146 -127t-155 -52q-56 0 -117 30t-122 59.5t-117 29.5q-52 0 -77.5 -19.5t-65.5 -59.5t-66 -40q-33 0 -33 29v4q0 88 126.5 192t213.5 111z" />
    <glyph glyph-name="hungarumlaut" unicode="&#x2dd;" 
d="M758 1942l184 294q73 119 139 123q79 0 127.5 -44.5t48.5 -106.5q0 -31 -61.5 -96t-143.5 -129.5t-164.5 -112t-125.5 -47.5q-31 0 -37 32q0 31 33 87zM1372 1942l184 294q73 123 160 123q62 0 109 -44.5t47 -106.5q0 -87 -107 -152q-12 -7 -107.5 -72t-175.5 -113
t-106 -48q-31 0 -37 32q0 27 33 87z" />
    <glyph glyph-name="emdash" unicode="&#x2013;" 
d="M1618 709h-1258h-53q-87 0 -98 69q0 152 205 152h1257h53q92 0 103 -70q0 -151 -209 -151z" />
    <glyph glyph-name="endash" unicode="&#x2014;" horiz-adv-x="2621" 
d="M2646 709h-2691q-164 0 -164 98q0 123 193 123h2691q164 0 164 -99q0 -122 -193 -122z" />
    <glyph glyph-name="quoteleft" unicode="&#x2018;" horiz-adv-x="942" 
d="M451 2191q10 224 208 459q146 189 234 189h4q18 0 33.5 -14t15.5 -32q0 -17 -12 -32t-29 -28t-33 -26q-79 -76 -131.5 -179.5t-52.5 -200.5q0 -162 119 -254q74 -52 74 -74q0 -18 -12 -36.5t-35 -42t-27 -28.5q-7 -8 -32 -45t-46.5 -59.5t-44.5 -22.5q-113 0 -173 159.5
t-60 266.5z" />
    <glyph glyph-name="quoteright" unicode="&#x2019;" horiz-adv-x="942" 
d="M926 2413q-5 -104 -81 -259.5t-179 -272t-183 -116.5h-4q-15 0 -30 15t-15 30q0 13 75 99t129 177t54 191q0 157 -119 254q-23 16 -48 35t-25 43q0 31 69 103q14 13 24 26.5t30 38.5q40 62 73 62q70 0 122.5 -73t80 -175t27.5 -178z" />
    <glyph glyph-name="quotesinglbase" unicode="&#x201a;" horiz-adv-x="942" 
d="M627 4q-4 -100 -80 -257.5t-179.5 -273.5t-183.5 -116h-4q-15 0 -30 15t-15 30q0 14 76 101t129 177.5t53 192.5q0 84 -38.5 142.5t-96 113.5t-57.5 72q0 34 85.5 131.5t110.5 97.5q75 0 127 -74.5t77.5 -175.5t25.5 -176z" />
    <glyph glyph-name="quotedblleft" unicode="&#x201c;" horiz-adv-x="1585" 
d="M1094 2191q11 229 204 459q160 189 238 189h4q18 0 31.5 -13.5t13.5 -32.5q0 -17 -12 -32t-29 -28t-33 -26q-79 -76 -131.5 -179.5t-52.5 -200.5q0 -162 119 -254q74 -52 74 -74q0 -33 -74 -107q-8 -10 -32.5 -48t-45.5 -58.5t-45 -20.5q-85 0 -136 88.5t-72 193.5
t-21 144zM451 2191q10 224 208 459q146 189 234 189h4q18 0 31.5 -13.5t13.5 -32.5q0 -27 -70 -86q-184 -177 -184 -380q0 -162 119 -254q74 -52 74 -74q0 -20 -12.5 -39t-33 -38.5t-28.5 -29.5q-7 -8 -32 -45t-46.5 -59.5t-44.5 -22.5q-113 0 -173 159.5t-60 266.5z" />
    <glyph glyph-name="quotedblright" unicode="&#x201d;" horiz-adv-x="1585" 
d="M926 2413q-5 -104 -81 -259.5t-179 -272t-183 -116.5h-4q-15 0 -30 15t-15 30q0 14 75.5 100t129 176.5t53.5 194.5q0 96 -38 153t-96 105.5t-58 69.5q0 31 69 103q14 13 24 26.5t30 38.5q40 62 73 62q70 0 122.5 -73t80 -175t27.5 -178zM1569 2413q-9 -105 -86 -262
t-178 -271.5t-183 -114.5h-4q-15 0 -30 15t-15 30q0 10 74 94t129 178t55 199q0 87 -38 145t-96 111t-58 72t11.5 36.5t32.5 38t29 28.5q9 10 20.5 26t29.5 39q40 62 73 62q72 0 125.5 -74t81 -176t27.5 -176z" />
    <glyph glyph-name="quotedblbase" unicode="&#x201e;" horiz-adv-x="1585" 
d="M627 4q-4 -100 -80 -257.5t-179.5 -273.5t-183.5 -116h-4q-15 0 -30 15t-15 30q0 14 76 101t129 177.5t53 192.5q0 84 -38.5 142.5t-96 113.5t-57.5 72q0 34 85.5 131.5t110.5 97.5q75 0 127 -74.5t77.5 -175.5t25.5 -176zM1270 4q-9 -105 -85.5 -261t-178.5 -271
t-183 -115h-4q-15 0 -30 15t-15 30q0 11 74.5 96t129 179t54.5 196q0 90 -37.5 146.5t-96 109t-58.5 72.5q0 29 73 102q10 11 36 48.5t46 58t41 20.5q109 0 171.5 -148.5t62.5 -277.5z" />
    <glyph glyph-name="dagger" unicode="&#x2020;" horiz-adv-x="2056" 
d="M1430 2437l-164 -495q-13 -42 -13 -50q0 -24 21 -24q25 0 41 8l483 106q75 13 86 13q94 0 107 -78q0 -7 2 -24t2 -25q0 -89 -35 -159.5t-109 -70.5q-45 0 -139 25l-418 98q-16 8 -32 8q-33 0 -33 -40q0 -69 11.5 -156.5t22.5 -175t11 -156.5q0 -116 -41 -270
q-108 -378 -155.5 -613.5t-98.5 -648.5q-1 -9 -6 -62t-19.5 -81.5t-48.5 -28.5q-41 0 -41 62q86 532 86 933q0 73 -5 218t-7 217q0 132 30 240t94 294t64 244q0 20 -20 20q-6 0 -22 -2t-19 -2l-438 -98q-102 -25 -148 -25q-87 0 -94 95q0 262 152 262q19 0 81 -13l459 -106
q16 -8 37 -8q29 0 29 41q0 6 -2 17t-2 16l-41 491q-4 25 -4 78q0 246 209 246q83 0 123 -22.5t40 -96.5q0 -102 -36 -201z" />
    <glyph glyph-name="daggerdbl" unicode="&#x2021;" horiz-adv-x="2056" 
d="M1438 2437l-164 -495q-12 -39 -12 -54q0 -20 20 -20q25 0 41 8l483 106q75 13 86 13q95 0 107 -78q0 -279 -139 -279q-46 0 -140 25l-417 98q-18 8 -37 8q-29 0 -29 -40q0 -69 11.5 -156.5t22.5 -175t11 -156.5q0 -85 -26 -181t-79 -231t-68 -181.5t-15 -98.5
q0 -21 20 -21q6 0 22 2t19 2l438 99q98 24 148 24q83 0 90 -94q0 -116 -26 -189t-126 -73q-7 0 -23.5 2.5t-33.5 5.5t-25 4l-454 107q-16 8 -37 8q-29 0 -29 -41q0 -6 2 -18t2 -15l41 -491q4 -37 4 -115q-9 -117 -54 -163t-159 -46q-81 0 -122 23t-41 96q0 82 36 201
l168 495q13 42 13 49q0 25 -25 25q-21 0 -37 -8l-483 -107q-21 -3 -43.5 -7.5t-42.5 -4.5q-111 0 -111 127q0 88 36 158.5t108 70.5q49 0 139 -24l414 -99q6 0 20 -2t21 -2q12 0 16 4q12 5 12 37q0 86 -24.5 243t-24.5 237q0 108 30.5 200.5t96.5 266t66 229.5q0 20 -21 20
q-8 0 -24 -2t-21 -2l-438 -98q-94 -25 -144 -25q-87 0 -94 95q0 262 152 262q17 0 82 -13l458 -106q18 -8 37 -8q29 0 29 37q0 6 -2 19t-2 18l-45 491q0 152 38.5 238t170.5 86q84 0 124 -21.5t40 -97.5q0 -99 -37 -201z" />
    <glyph glyph-name="bullet" unicode="&#x2022;" horiz-adv-x="2458" 
d="M811 1171q0 164 115 279t278 115q166 0 284 -115t118 -279q0 -163 -118 -278t-284 -115q-163 0 -278 115t-115 278z" />
    <glyph glyph-name="ellipsis" unicode="&#x2026;" horiz-adv-x="2974" 
d="M680 213q-3 -17 -117.5 -129.5t-136.5 -112.5q-20 0 -106.5 102.5t-86.5 127.5q0 32 46 69q13 8 92 82t96 74q34 0 61.5 -26t63.5 -76t55 -66q33 -16 33 -45zM1671 213q-5 -23 -41 -49q-106 -83 -160 -152q-25 -41 -53 -41q-11 0 -101.5 99t-90.5 131q0 24 37.5 64
t82.5 77.5t60 50.5q31 33 53 33q32 0 60 -26.5t68 -78.5t52 -63q33 -16 33 -45zM2662 213q-2 -8 -90.5 -91.5t-109.5 -109.5q-27 -41 -54 -41q-22 0 -49 41q-5 7 -74 87t-69 102q0 26 30.5 59t85.5 78.5t64 54.5q33 33 53 33q29 0 62 -33q94 -115 119 -135q32 -16 32 -45z
" />
    <glyph glyph-name="perthousand" unicode="&#x2030;" horiz-adv-x="4026" 
d="M1393 2228q-17 -188 -110 -375.5t-248.5 -314t-342.5 -137.5q-189 0 -299 123.5t-110 314.5t94 390t258 328.5t360 129.5q193 0 295.5 -131t102.5 -328zM1192 2269q0 11 2 29t2 29q0 278 -209 278q-150 0 -266 -136.5t-179 -326.5t-63 -340q0 -125 48.5 -218t156.5 -93
q157 0 266.5 129.5t168.5 312t73 336.5zM2593 2605l-2073 -2539q-76 -95 -143 -95q-74 0 -74 29q0 12 4 16q3 8 21 33l2105 2577q58 77 131 77q66 0 70 -32q0 -25 -41 -66zM2654 815q-17 -184 -109 -371.5t-246 -314t-341 -137.5q-189 0 -299.5 122t-110.5 316
q0 192 94 390.5t258.5 326t360.5 127.5q184 0 290.5 -111.5t106.5 -290.5q0 -7 -2 -26t-2 -31zM2458 860q0 11 2 29t2 29q0 278 -209 278q-150 0 -267 -136.5t-179 -329.5t-62 -341q0 -125 48.5 -216t156.5 -91q157 0 266.5 129.5t168.5 312t73 336.5zM4006 815
q-17 -185 -110 -372t-248.5 -313.5t-342.5 -137.5q-198 0 -303.5 118t-105.5 320q0 143 54 293t151 274t230 200.5t282 76.5q202 0 297.5 -126.5t95.5 -332.5zM3805 860q0 11 2 31t2 31q0 274 -209 274q-151 0 -267.5 -137t-178.5 -328.5t-62 -341.5q0 -123 49 -215t160 -92
q228 0 354 253.5t150 524.5z" />
    <glyph glyph-name="guilsinglleft" unicode="&#x2039;" horiz-adv-x="848" 
d="M147 803q8 59 119 160q211 196 357 393q19 25 39.5 50.5t42.5 42.5t45 17q45 0 45 -41q0 -50 -41.5 -117.5t-125.5 -179t-126.5 -184t-50.5 -141.5q0 -74 22.5 -136t72.5 -163.5t75.5 -171t25.5 -144.5q0 -40 -53 -49q-40 0 -72 39.5t-64 111.5t-36 79q-19 34 -101 144
t-128 181t-46 109z" />
    <glyph glyph-name="guilsinglright" unicode="&#x203a;" horiz-adv-x="848" 
d="M774 803q-7 -51 -191 -236t-194 -198q-13 -18 -59 -83t-86.5 -106t-71.5 -41q-19 0 -34 14t-15 31q0 43 41 105t127 175t131 191.5t49 147.5q0 76 -24.5 143t-76 171.5t-74 165t-22.5 134.5q0 41 50 49q30 0 48 -15.5t32.5 -41.5t29.5 -53l62 -115q22 -45 109.5 -160
t128 -176t40.5 -102z" />
    <glyph glyph-name="fraction" unicode="&#x2044;" horiz-adv-x="573" 
d="M1364 2605l-1749 -2539q-68 -95 -131 -95q-78 0 -78 45q2 7 8 17t8 16l1778 2577q52 77 123 77q66 0 70 -28q0 -40 -29 -70z" />
    <glyph glyph-name="trademark" unicode="&#x2122;" horiz-adv-x="3813" 
d="M1155 2535l-143 -1179q-4 -25 -4 -70q0 -99 114 -115q90 -17 90 -45v-4q-11 -37 -73 -37q-37 0 -106.5 6.5t-114.5 6.5q-46 0 -115.5 -6.5t-106.5 -6.5q-78 0 -78 37v4q8 25 55.5 37.5t80 41.5t45.5 122l147 1208v21q-4 24 -41 24h-266q-132 0 -178.5 -39.5t-72.5 -104.5
t-60 -69q-58 0 -58 66q0 30 41 135q15 50 27 86.5t35.5 61t68.5 24.5q104 0 313 -8t314 -8q101 0 301 8t301 8q61 0 75.5 -26.5t14.5 -96.5q0 -11 -2 -39t-2 -43q0 -17 2 -52t2 -54q0 -70 -41 -70q-38 0 -63 77t-45.5 110.5t-95.5 33.5h-324q-31 0 -37 -45zM3424 1323l8 889
v20q-31 -46 -45 -78l-508 -1011q-20 -41 -53 -41q-25 0 -57 53l-479 1032l-4 17l-5 -25l-135 -807q-4 -16 -6 -28.5t-3.5 -23t-2.5 -22.5q0 -72 24.5 -91.5t90.5 -26.5q98 0 98 -45q0 -50 -70 -50q-32 0 -94 6.5t-102 6.5q-41 0 -104 -6.5t-97 -6.5q-59 0 -70 33
q0 24 20.5 38.5t65 34.5t66 35t29.5 44q30 130 60 257.5t58 271.5t43 267.5t15 251.5q0 119 -37 219.5t-123 108.5q-53 0 -82 -4q-61 0 -61 29q0 69 159 69l111 -4q82 -4 117 -13.5t59 -56.5l193 -417q53 -114 130.5 -301.5t127.5 -299.5t114 -223l21 41l393 779
q47 96 94.5 191t94.5 190q32 67 46 86.5t56 19.5h78q61 0 94 4q74 0 78 -29q0 -20 -14 -31.5t-34 -17t-42 -12.5q-74 -22 -82 -147q-17 -489 -17 -684v-459q0 -87 22.5 -128t100.5 -57q83 -13 86 -45q0 -41 -53 -41q-37 0 -105.5 6.5t-115.5 6.5q-46 0 -117.5 -6.5
t-107.5 -6.5q-62 0 -62 37q0 19 25.5 34.5t50.5 27.5t42 29t17 49v61z" />
    <glyph glyph-name="minus" unicode="&#x2212;" 
d="M193 1466h1851v-159h-1851v159z" />
    <glyph glyph-name="periodcentered" unicode="&#x2219;" horiz-adv-x="991" 
d="M766 913q0 -10 -113.5 -125.5t-140.5 -115.5q-21 0 -107 106t-86 123q0 31 46 70q59 40 135 123q26 32 61 32t82 -66.5t90 -101.5q33 -16 33 -45z" />
    <glyph glyph-name="fi" unicode="&#xf001;" horiz-adv-x="2212" 
d="M565 1475h-266q-94 0 -94 53q0 82 110 82h271q36 245 126 512t251.5 465t384.5 198q69 0 104 -16.5t35 -73.5q0 -76 -17 -201q0 -45 -28 -45q-27 0 -91 56t-94 78t-81 22q-84 0 -147 -108.5t-105 -267t-69.5 -325.5t-47.5 -294h303q94 0 94 -58q0 -77 -110 -77h-303
l-185 -1487q-39 -339 -188 -492q-164 -180 -336 -180q-40 0 -71 22t-31 60q0 60 26 161t68 101h4q21 0 39 -62t33.5 -92t62.5 -30q43 0 71.5 47t44 113t24 141.5t12.5 107.5l110 918q72 549 90 672zM1626 819l86 496q8 56 8 82q0 94 -118 94h-123q-70 0 -70 37v4q4 45 86 45
q77 2 238.5 23.5t220.5 21.5q41 0 41 -45q0 -4 -2 -12t-2 -13l-111 -548q-82 -366 -82 -623q0 -127 62 -127q92 0 176 168q27 45 45 45h4q29 0 29 -33q0 -89 -64 -196t-160 -180.5t-186 -73.5q-139 0 -139 323q0 159 61 512zM2105 2228q0 -17 -28 -45q-38 -35 -111 -123
q-19 -28 -41 -28h-4q-25 6 -78 96.5t-53 112.5q0 19 12 36.5t30.5 35.5t31.5 30q7 7 29 37t39.5 47.5t33.5 17.5q17 -2 57 -71t66 -105q16 -24 16 -41z" />
    <glyph glyph-name="fl" unicode="&#xf002;" horiz-adv-x="2224" 
d="M1470 2753q26 40 82 40q233 10 332 33q54 13 94 13q37 0 37 -50v-20l-282 -2318q-9 -74 -9 -99q0 -114 58 -119q170 0 291 246q23 41 49 41h8q29 -14 29 -45q-9 -86 -93.5 -203t-199.5 -202.5t-203 -85.5q-172 0 -172 327q0 94 12 181l250 2039q2 15 5.5 38.5t6.5 43.5
q0 94 -110 94q-115 0 -172 9q0 -82 -17 -222q0 -45 -28 -45q-27 0 -91 56t-94 78t-82 22q-83 0 -146 -108.5t-105 -267t-69.5 -325.5t-47.5 -294h303q94 0 94 -58q0 -77 -110 -77h-304l-184 -1487q-39 -339 -188 -492q-164 -180 -336 -180q-40 0 -71.5 22.5t-31.5 59.5
q0 62 25.5 162t69.5 100h4q21 0 39 -62t33.5 -92t62.5 -30q43 0 71.5 47t44 113t23 135.5t12.5 113.5l111 918q72 549 90 672h-266q-94 0 -94 53q0 82 110 82h271q36 245 126 512t250.5 465t384.5 198q79 0 127 -32z" />
    </font>
</defs>
</svg>
